Welcome Guest ( Log In | Register )

> Panphage - Panphage [demo] (2005), Black Metal (D)
post Mar 25 2020, 06:24:07
Post #1

Group: Дух
Posts: 1
Releases: 1
On Forums: 3 months 4 days
Thanks: 6 time(s)
Poland


(IMG:http://metalarea.org/images/audiocovers/2020_Mar/acov_tid335277_thumb.jpg)

*Artist: Panphage
*Album: Panphage [demo]
*Year: 2005
*Genre: Black Metal
*Country: Sweden (IMG:http://metalarea.org/forum/style_images/flags/Sweden.png)
*Format: mp3@VBR231kbps
*Size: 31MB

Tracklist:
1. Intro 01:21
2. Elva stigar skymtas 04:50
3. Av röta besatt 06:36
4. Akhera Goiti-Akhera Beiti 03:42
5. Pan Panphage 02:07
******************************
Total playing time: 18:36

Technical info
(IMG:http://metalarea.org/images/spectrogram/2020_Mar/62bfa56c29dfc2a5bb562f550e026ab9.png)
Input File: 02 - Elva Stigar Skymtas.mp3
Channels : 2
Sample Rate : 48000
Precision : 16-bit
Duration : 00:04:50.90 = 13963392 samples ~ 21817.8 CDDA sectors
File Size : 8.54M
Bit Rate : 235k
Sample Encoding: MPEG audio (layer I, II or III)
Comments :
Title=Elva Stigar Skymtas
Artist=Panphage
Album=Panphage
Tracknumber=2
Year=2005
Genre=Black Metal



Register


Go to the top of the page
  Insert nick Quick quote
+Quote Post
 
Start new topic
Replies (1 - 1)
post Mar 26 2020, 13:34:27
Post #2

Forever Underground
**************
Group: Металариец
Posts: 6,696
Releases: 0
On Forums: 4 years 11 months
Thanks: 8184 time(s)
Unknown


Thank you VERY MUCH!!! (IMG:style_emoticons/default/pray.gif) This demo was in my want-list since over 4 years (IMG:style_emoticons/default/true_black.gif)
According to Discogs, it was just recorded in 2005 (December), but was published in 2006:
https://www.discogs.com/Panphage-Panphage/release/4337792
Go to the top of the page
  Insert nick Quick quote
+Quote Post

Reply to this topicStart new topic
1 User(s) are reading this topic (1 Guests and 0 Anonymous Users)
0 Members:

 



- Lo-Fi Version Support form
Copyrights and abuse reports form
Time is now: 29th March 2020 - 03:43:27