Welcome Guest ( Log In | Register )

> Releases Upload / Добавление релизов

Добавить релиз тут / Click here to add release
Рекомендованные обменники / Recommended file shares

 
Reply to this topicStart new topic
> Aspired Infliction - Artfully Imprisoned (2020), Melodic Death/Thrash Metal
post Mar 25 2020, 06:24:08
Post #1

Правь статус, ####!111
**************
Group: Металариец
Posts: 21,205
Releases: 14487
From: Г.Харьков
On Forums: 7 years 10 months
Thanks: 258283 time(s)
Unknown


(IMG:http://metalarea.org/images/audiocovers/2020_Mar/acov_tid335278_thumb.jpg)

*Artist: Aspired Infliction
*Album: Artfully Imprisoned
*Year: 2020
*Genre: Melodic Death/Thrash Metal
*Country: United States (IMG:http://metalarea.org/forum/style_images/flags/United%20States.png)
*Format: mp3@CBR320kbps
*Size: 112MB

Tracklist:
1. The Cage 02:17
2. Artfully Imprisoned 04:23
3. Like Lambs to the Slaughter 03:19
4. Uprising 03:28
5. Hauntingly Beautiful 04:02
6. Sojourn 03:57
7. Convolution 03:40
8. Fates Intertwined 03:36
9. The Burning 03:57
10. The Dark Exile 04:41
11. Prison Break 04:40
12. Odyssey 05:54
******************************
Total playing time: 47:54




Extended info
Mike Marlinski Guitars
Tony Vocals
Timothy P. Drums
Jay Guitars
Ryan Bass


Technical info
(IMG:http://metalarea.org/images/spectrogram/2020_Mar/4c9efabd022f5970c5097ec0edd7643b.png)
Input File: 05 - Hauntingly Beautiful.mp3
Channels : 2
Sample Rate : 44100
Precision : 16-bit
Duration : 00:04:02.28 = 10684372 samples = 18170.7 CDDA sectors
File Size : 9.86M
Bit Rate : 326k
Sample Encoding: MPEG audio (layer I, II or III)
Comments :
Title=Hauntingly Beautiful
Artist=Aspired Infliction
Album=Artfully Imprisoned
Tracknumber=5
Year=2020



Register


Go to the top of the page
  Insert nick Quick quote
+Quote Post

Reply to this topicStart new topic
2 User(s) are reading this topic (2 Guests and 0 Anonymous Users)
0 Members:

 



- Lo-Fi Version Support form
Copyrights and abuse reports form
Time is now: 1st April 2020 - 05:55:25