Welcome Guest ( Log In | Register )

> Releases Upload / Добавление релизов

Добавить релиз тут / Click here to add release
Рекомендованные обменники / Recommended file shares

> Arise In Stability - Dose Again (2020), Melodic Death/Thrash Metal/Metalcore
post Mar 25 2020, 06:43:47
Post #1

Каждое ваше "Спасибо" помогает мне понять, что я делаю новости не напрасно.
**************
Group: Металариец
Posts: 2,465
Releases: 2181
From: Одесса
On Forums: 11 years 9 months
Thanks: 20214 time(s)
Ukraine


(IMG:http://metalarea.org/images/audiocovers/2020_Mar/acov_tid335279_thumb.jpg)

*Artist: Arise In Stability
*Album: Dose Again
*Year: 2020
*Genre: Melodic Death/Thrash Metal/Metalcore
*Country: Japan (IMG:http://metalarea.org/forum/style_images/flags/Japan.png)
*Format: mp3@CBR320kbps
*Size: 148MB

Tracklist:
1.Noise Heard in the Moon 05:43
2.Thoughts from a Wooden Statue 05:19
3.A Decree of Life Mercy 05:02
4.Madness Gives Rise to Enlightenment 06:09
5.Pagoda of Reproduction 05:31
6.Jamie Fractured the Great Deceiver 01:29 instrumental
7.Magnetclock 06:24
8.Macrophyllahydrangea 09:08
9.Samsara 03:39 instrumental
10.Atyanta 13:16
******************************
Total playing time: 1:01:40

Extended info
Line - up:

Suguru Yamashita - Drums
Housuke Taniguchi - Vocals
Masayoshi Onodera - Guitars, Vocals
Kodai Kaneyasu - Bass
Yusuke Hiraga - Guitars

(IMG:https://www.metal-archives.com/images/1/1/4/9/114914_photo.jpg?2157)






Technical info
(IMG:http://metalarea.org/images/spectrogram/2020_Mar/6a0e5e92c6973acbf733317cdd215bdd.png)
Input File: 5 - Pagoda of Reproduction.mp3
Channels : 2
Sample Rate : 44100
Precision : 16-bit
Duration : 00:05:30.84 = 14589868 samples = 24812.7 CDDA sectors
File Size : 13.3M
Bit Rate : 322k
Sample Encoding: MPEG audio (layer I, II or III)
Comments :
Title=Pagoda of Reproduction
Artist=Arise In Stability
Album=Dose Again
Tracknumber=5
Year=2020
Genre=Melodic Death/Thrash Metal/Metalcore



Register


Go to the top of the page
  Insert nick Quick quote
+Quote Post
 
Start new topic
Replies (1 - 1)
post Mar 29 2020, 01:55:26
Post #2

Ъ
**************
Group: Металариец
Posts: 10,008
Releases: 9
On Forums: 11 years 2 months
Thanks: 1986 time(s)
Sweden


Вроде неплохо, но не могу переварить эту японщину, такое ощущение что у них один вокалист на все группы.
Go to the top of the page
  Insert nick Quick quote
+Quote Post

Reply to this topicStart new topic
2 User(s) are reading this topic (2 Guests and 0 Anonymous Users)
0 Members:

 



- Lo-Fi Version Support form
Copyrights and abuse reports form
Time is now: 1st April 2020 - 06:47:34