Welcome Guest ( Log In | Register )

> Releases Upload / Добавление релизов

Добавить релиз тут / Click here to add release
Рекомендованные обменники / Recommended file shares

 
Reply to this topicStart new topic
> Rampancy - Proclamation [ep] (2020), Black/Death Metal/Grindcore (D5)
post Mar 25 2020, 07:02:28
Post #1

Каждое ваше "Спасибо" помогает мне понять, что я делаю новости не напрасно.
**************
Group: Металариец
Posts: 2,464
Releases: 2181
From: Одесса
On Forums: 11 years 9 months
Thanks: 20213 time(s)
Ukraine


(IMG:http://metalarea.org/images/audiocovers/2020_Mar/acov_tid335280_thumb.png)

*Artist: Rampancy
*Album: Proclamation [ep]
*Year: 2020
*Genre: Black/Death Metal/Grindcore
*Country: Canada (IMG:http://metalarea.org/forum/style_images/flags/Canada.png)
*Format: mp3@CBR320kbps
*Size: 60MB

Tracklist:
1.In Unison, In Time 00:59 instrumental
2.The Candle That No Longer Burns 04:52
3.Built Upon the Old Ones 04:20
4.New Mecca 06:13
5.Traitors Will Hang 04:59
6.Black Gold 03:52
******************************
Total playing time: 25:15



Technical info
(IMG:http://metalarea.org/images/spectrogram/2020_Mar/29c2f2900ad32d2cf621f0c7a511cf43.png)
Input File: 01. In Unison, In Time.mp3
Channels : 2
Sample Rate : 44100
Precision : 16-bit
Duration : 00:00:59.10 = 2606090 samples = 4432.13 CDDA sectors
File Size : 2.39M
Bit Rate : 324k
Sample Encoding: MPEG audio (layer I, II or III)
Comments :
Title=In Unison, In Time
Artist=Rampancy
Album=Proclamation (EP)
Tracknumber=1
Year=2020
Genre=Black/Death Metal/Grindcore



Register


Go to the top of the page
  Insert nick Quick quote
+Quote Post

Reply to this topicStart new topic
1 User(s) are reading this topic (1 Guests and 0 Anonymous Users)
0 Members:

 



- Lo-Fi Version Support form
Copyrights and abuse reports form
Time is now: 1st April 2020 - 06:11:39