Welcome Guest ( Log In | Register )

> Releases Upload / Добавление релизов

Добавить релиз тут / Click here to add release
Рекомендованные обменники / Recommended file shares

 
Reply to this topicStart new topic
> Various Artists - Thrash Metal Blitzkrieg Vol. 1 [split] (2005), Thrash/Speed Metal/Black Metal (D2166)
post Mar 25 2020, 11:37:11
Post #1

Шесть Литров
******
Group: Металариец
Posts: 548
Releases: 115
On Forums: 1 year 2 months
Thanks: 1260 time(s)
Canada


(IMG:https://metalarea.org/images/audiocovers/2020_Mar/acov_tid335282_thumb.jpeg)

*Artist: Various Artists
*Album: Thrash Metal Blitzkrieg Vol. 1 [split]
*Year: 2005
*Genre: Thrash/Speed Metal/Black Metal
*Country: Many (IMG:https://metalarea.org/forum/style_images/flags/Many.png)
*Format: mp3@CBR320kbps
*Size: 34MB

Tracklist:
Side Pleasure
1. Skull - Interceptor 03:52
2. Hangöver - Fighting For Hell 03:28

Side Kill
3. Pyöveli - Metal Revolution 02:53
4. Paganfire - Thrashing Metal Militants 04:28
******************************
Total playing time: 14:41

Extended info
Hangöver (Pol) / Pyöveli (Fin) / Skull (Col) / Paganfire (Phil)
Country: Poland / Finland / Colombia / Philippines

https://www.metal-archives.com/albums/Py%C3%B6veli/Thrash_Metal_Blitzkrieg_Vol._1/93119
https://www.discogs.com/Various-Thrash-Metal-Blitzkrieg-Vol-1/release/851793

Co-released with Iron Bonehead Productions.
Label: Deathstrike Records – DR040, Iron Bonehead Productions – I.B.P. 026
Format: Vinyl, 7", Compilation, Limited to 1000 copies.
Country: Germany

Note: Paganfire track was cut off/faded out by the record company.


Technical info
(IMG:https://metalarea.org/images/spectrogram/2020_Mar/41e2590a6c96790e88506cec1d8fd212.png)
Input File: B1. Pyöveli - Metal Revolution.mp3
Channels : 2
Sample Rate : 44100
Precision : 16-bit
Duration : 00:02:53.54 = 7653158 samples = 13015.6 CDDA sectors
File Size : 7.06M
Bit Rate : 326k
Sample Encoding: MPEG audio (layer I, II or III)
Comments :
Album=Thrash Metal Blitzkrieg Vol. 1 [7"EP]
Year=2005
Genre=Thrash, Speed Metal, Black Metal



Register


Thanks:
Go to the top of the page
  Insert nick Quick quote
+Quote Post

Reply to this topicStart new topic
2 User(s) are reading this topic (2 Guests and 0 Anonymous Users)
0 Members:

 



- Lo-Fi Version Support form
Copyrights and abuse reports form
Time is now: 1st April 2020 - 05:42:28