Welcome Guest ( Log In | Register )

> И неформату есть предел.

Рэп/хип-хоп/шансон/поп удаляются. Для них есть свои порталы.

> Alexandra Savior - Belladonna Of Sadness (2017), Indie/Alternative/Psyhedelic Rock
post Mar 25 2020, 12:22:44
Post #1

Правь статус, ####!111
**************
Group: Металариец
Posts: 45,596
Releases: 703
On Forums: 10 years 9 months
Thanks: 37525 time(s)
Russian Federation


(IMG:http://metalarea.org/images/audiocovers/2020_Mar/acov_tid335283_thumb.jpg)

*Artist: Alexandra Savior
*Album: Belladonna Of Sadness
*Year: 2017
*Genre: Indie/Alternative/Psyhedelic Rock
*Country: United States (IMG:http://metalarea.org/forum/style_images/flags/United%20States.png)
*Format: mp3@CBR320kbps
*Size: 96MB

Tracklist:
1. Mirage
2. Bones
3. Shades
4. Girlie
5. Frankie
6. M.T.M.E.
7. Audeline
8. Cupid
9. 'Til You're Mine
10. Vanishing Point
11. Mystery Girl
12. Risk (bonus)
******************************
Total playing time: 44:55

(IMG:http://metalarea.org/images/youtube.png)

Technical info
(IMG:http://metalarea.org/images/spectrogram/2020_Mar/441820fa472e3230b75d926fc5dbff1d.png)
Input File: 01. Mirage.mp3
Channels : 2
Sample Rate : 44100
Precision : 16-bit
Duration : 00:03:25.94 = 9081822 samples = 15445.3 CDDA sectors
File Size : 8.27M
Bit Rate : 321k
Sample Encoding: MPEG audio (layer I, II or III)
Comments :
Title=Mirage
Artist=Alexandra Savior
Album=Belladonna Of Sadness
Tracknumber=1
Year=2017
Genre=Indie



Register


Go to the top of the page
  Insert nick Quick quote
+Quote Post
 
Start new topic
Replies (1 - 1)
post Mar 27 2020, 11:53:13
Post #2

Правь статус, ####!111
**************
Group: Металариец
Posts: 45,596
Releases: 703
On Forums: 10 years 9 months
Thanks: 37525 time(s)
Russian Federation


В отличие от альбома сего года, в сабже нет ни одной слабой песни.

Очень атмосферная и обволакивающая музыка.
Go to the top of the page
  Insert nick Quick quote
+Quote Post

Reply to this topicStart new topic
1 User(s) are reading this topic (1 Guests and 0 Anonymous Users)
0 Members:

 



- Lo-Fi Version Support form
Copyrights and abuse reports form
Time is now: 29th March 2020 - 03:36:28