Welcome Guest ( Log In | Register )

> Releases Upload / Добавление релизов

Добавить релиз тут / Click here to add release
Рекомендованные обменники / Recommended file shares

 
Reply to this topicStart new topic
> In Autumnus - Astral Atonal (2020), Atmospheric Post-Black Metal (D4)
post Mar 25 2020, 12:51:36
Post #1

but I'm white and furry
**********
Group: Металариец
Posts: 1,290
Releases: 451
From: Москва
On Forums: 14 years 1 month
Thanks: 5760 time(s)
Russian Federation


(IMG:http://metalarea.org/images/audiocovers/2020_Mar/acov_tid335284_thumb.jpg)

*Artist: In Autumnus
*Album: Astral Atonal
*Year: 2020
*Genre: Atmospheric Post-Black Metal
*Country: United Kingdom (IMG:http://metalarea.org/forum/style_images/flags/United%20Kingdom.png)
*Format: mp3@CBR320kbps
*Size: 93MB

Tracklist:
1. Vehement 5:11
2. Ordet (The Word) 5:29
3. Astral Atonal 11:36
4. 22-33 7:38
5. Dysphoria 3:29
6. Àrd 3:20
7. Xanthein 4:24
******************************
Total playing time: 41:07



Extended info
lame 3.93


Technical info
(IMG:http://metalarea.org/images/spectrogram/2020_Mar/d2d16321e6e47436efa8ea6eb4ab47ff.png)
Input File: 01 - Vehement.mp3
Channels : 2
Sample Rate : 44100
Precision : 16-bit
Duration : 00:05:11.82 = 13751174 samples = 23386.4 CDDA sectors
File Size : 12.5M
Bit Rate : 320k
Sample Encoding: MPEG audio (layer I, II or III)
Comments :
Title=Vehement
Artist=In Autumnus
Album=Astral Atonal
Tracknumber=1
Year=2020
Genre=Metal



Register


Go to the top of the page
  Insert nick Quick quote
+Quote Post

Reply to this topicStart new topic
1 User(s) are reading this topic (1 Guests and 0 Anonymous Users)
0 Members:

 



- Lo-Fi Version Support form
Copyrights and abuse reports form
Time is now: 29th March 2020 - 04:45:36