Welcome Guest ( Log In | Register )

> Releases Upload / Добавление релизов

Добавить релиз тут / Click here to add release
Рекомендованные обменники / Recommended file shares

> Солнце Осени - Паутина Снов (2019), Folk Metal/Rock
post Mar 25 2020, 13:25:07
Post #1

Каждое ваше "Спасибо" помогает мне понять, что я делаю новости не напрасно.
**************
Group: Металариец
Posts: 2,449
Releases: 2160
From: Одесса
On Forums: 11 years 9 months
Thanks: 20032 time(s)
Ukraine


(IMG:http://metalarea.org/images/audiocovers/2020_Mar/acov_tid335286_thumb.jpg)

*Artist: Солнце Осени
*Album: Паутина Снов
*Year: 2019
*Genre: Folk Metal/Rock
*Country: Russian Federation (IMG:http://metalarea.org/forum/style_images/flags/Russian%20Federation.png)
*Format: mp3@CBR320kbps
*Size: 88MB

Tracklist:
1.Intro 02:07
2.Солнце осени 04:41
3.Жемчуг ворожеи 04:22
4.Ивы сон 04:41
5.Oсенний покой 03:37
6.Паутина снов 04:17
7.Ивы сон (acoustic version) 04:22
8.Sweet Vampire 03:22
9.Night Time 03:31
10.Midhight Sun 03:03
******************************
Total playing time: 38:03

(IMG:http://metalarea.org/images/youtube.png)

Extended info
Line - up:
Nikolay Demakov - Bass (Волчий Острог, Коллиматор, ex-Tears of Heaven, ex-Се7мь, ex-Off Beat, ex-Кэйдж, ex-Южный Крестъ)
Ivan Garbuzov - Guitars (Erynium, Fantasy Ghost)
Vladimir Fomin - Guitars, Flute (ex-Erynium)
Elena Firsova - Vocals, Bass (Erynium, Fantasy Ghost, ex-Wine from Tears)

Guest/Session:
Pyotr Zubov - Keyboards (tracks 8, 10) (Erynium)

(IMG:https://www.metal-archives.com/images/3/5/4/0/3540461002_photo.jpg?2621)


Technical info
(IMG:http://metalarea.org/images/spectrogram/2020_Mar/8c29e8085ae2d9f5a5563ee043b025af.png)
Input File: 05 - Oсенний Покой.mp3
Channels : 2
Sample Rate : 44100
Precision : 16-bit
Duration : 00:03:37.98 = 9612918 samples = 16348.5 CDDA sectors
File Size : 8.77M
Bit Rate : 322k
Sample Encoding: MPEG audio (layer I, II or III)
Comments :
Title=Oсенний Покой
Artist=Солнце Осени
Album=Паутина Снов
Tracknumber=5
Year=2019
Genre=Folk Metal/Rock



Register


Go to the top of the page
  Insert nick Quick quote
+Quote Post
 
Start new topic
Replies (1 - 2)
post Mar 26 2020, 11:33:18
Post #2

hearer & reader
**************
Group: Металариец
Posts: 8,503
Releases: 130
From: Moscow
On Forums: 12 years 6 months
Thanks: 8337 time(s)
Russian Federation


Go to the top of the page
  Insert nick Quick quote
+Quote Post
post Mar 26 2020, 13:45:19
Post #3

Ненавижу всё общественное, особенно питание, мнение и туалет.
**********
Group: Металариец
Posts: 1,109
Releases: 0
From: Sacred PetroGrind
On Forums: 12 years 1 week
Thanks: 289 time(s)
Russian Federation


Мне понравилось, хорошие ребята.
Go to the top of the page
  Insert nick Quick quote
+Quote Post

Reply to this topicStart new topic
1 User(s) are reading this topic (1 Guests and 0 Anonymous Users)
0 Members:

 



- Lo-Fi Version Support form
Copyrights and abuse reports form
Time is now: 29th March 2020 - 04:58:46