Welcome Guest ( Log In | Register )

> Releases Upload / Добавление релизов

Добавить релиз тут / Click here to add release
Рекомендованные обменники / Recommended file shares

 
Reply to this topicStart new topic
> Тінь Сонця - На Небесних Конях (2020), Folk/Power Metal (D)
post Mar 25 2020, 15:48:50
Post #1

Каждое ваше "Спасибо" помогает мне понять, что я делаю новости не напрасно.
**************
Group: Металариец
Posts: 2,449
Releases: 2160
From: Одесса
On Forums: 11 years 9 months
Thanks: 20032 time(s)
Ukraine


(IMG:http://metalarea.org/images/audiocovers/2020_Mar/acov_tid335289_thumb.jpg)

*Artist: Тінь Сонця
*Album: На Небесних Конях
*Year: 2020
*Genre: Folk/Power Metal
*Country: Ukraine (IMG:http://metalarea.org/forum/style_images/flags/Ukraine.png)
*Format: mp3@CBR320kbps
*Size: 116MB

Tracklist:
1.Запорізький марш 02:32
2.Тримайся, козак 03:11
3.Мчать козаки 04:36
4.Вітер з січі 03:41
5.Розорана цілина 05:43
6.Гукає дикий вітер 06:02
7.В дикім полі 04:26
8.Палає степ 07:03
9.Вільним небокраєм 05:01
10.Невільничий ринок у Кафі 05:49
11.Козаки 02:59
12.Гімн України 01:39
******************************
Total playing time: 52:42

(IMG:http://metalarea.org/images/youtube.png)

Extended info
Line - up:
Serhiy Vasyliuk - Bass, Vocals (Сергій Василюк, ex-Urus Šaytan)
Anton Kotorovych - Guitars, Vocals (10) (ex-I Miss My Death)
Yuriy Ischenko - Drums (Deathincarnation, Kaosophia, Daemonium, ex-Vermis Mysteriis, Drumpire, ex-Vae Solis, ex-Широкий Лан, ex-Mayhemic Wrath (live))
Vlad Vakolyuk - Bandura, Vocals (10)

Guest/Session:
Sonia Rogalska - Violin (7, 11)

(IMG:https://www.metal-archives.com/images/6/9/1/2/69120_photo.jpg?2403)


Technical info
(IMG:http://metalarea.org/images/spectrogram/2020_Mar/ba92152a995db3dc77428b29ab3ca1a5.png)
Input File: 01. Запорізький марш.mp3
Channels : 2
Sample Rate : 44100
Precision : 16-bit
Duration : 00:02:32.62 = 6730454 samples = 11446.4 CDDA sectors
File Size : 6.13M
Bit Rate : 321k
Sample Encoding: MPEG audio (layer I, II or III)
Comments :
Title=Запорізький марш
Artist=Тінь Сонця
Album=На небесних конях
Tracknumber=01
Year=2020
Genre=Folk/Power Metal



Register


Go to the top of the page
  Insert nick Quick quote
+Quote Post

Reply to this topicStart new topic
1 User(s) are reading this topic (1 Guests and 0 Anonymous Users)
0 Members:

 



- Lo-Fi Version Support form
Copyrights and abuse reports form
Time is now: 29th March 2020 - 04:13:29