Welcome Guest ( Log In | Register )

> Releases Upload / Добавление релизов

Добавить релиз тут / Click here to add release
Рекомендованные обменники / Recommended file shares

 
Reply to this topicStart new topic
> Чиста Криниця - Храм Природи (2019), Blackened Pagan/Folk Metal
post Mar 25 2020, 16:17:45
Post #1

Каждое ваше "Спасибо" помогает мне понять, что я делаю новости не напрасно.
**************
Group: Металариец
Posts: 2,464
Releases: 2181
From: Одесса
On Forums: 11 years 9 months
Thanks: 20213 time(s)
Ukraine


(IMG:http://metalarea.org/images/audiocovers/2020_Mar/acov_tid335290_thumb.jpg)

*Artist: Чиста Криниця
*Album: Храм Природи
*Year: 2019
*Genre: Blackened Pagan/Folk Metal
*Country: Ukraine (IMG:http://metalarea.org/forum/style_images/flags/Ukraine.png)
*Format: mp3@CBR314kbps
*Size: 108MB

Tracklist:
1.Храм природи 05:52
2.Думки, неначе листя 06:32
3.Доки падала краплина 06:02
4.Сонячне місто 04:15
5.Непотопаючий корабель 06:36
6.Велика подорож 05:07
7.Ти сьогодні зацвіла 06:33
8.Мертві дощі 06:07
******************************
Total playing time: 47:04

(IMG:http://metalarea.org/images/youtube.png)

Extended info
Line - up:

Ruslan Krynycya - Vocals, Bass (ex-Morose Months of Melancholy, ex-Life's Illusion (live), ex-Bad Dreams, ex-Dead Dreams, ex-Хлеб)
Volodimir Galaida - Guitars (ex-Morose Months of Melancholy, ex-Bad Dreams, ex-Dead Dreams)
Olexandr Kastorny - Drums
Pavlo Knish - Keyboards

(IMG:https://www.metal-archives.com/images/3/5/4/0/3540257488_photo.jpg?3248)


Technical info
(IMG:http://metalarea.org/images/spectrogram/2020_Mar/c0b7eed3bdefc8ae4979fc38e2ec8233.png)
Input File: 02.Думки, Неначе Листя.mp3
Channels : 2
Sample Rate : 44100
Precision : 16-bit
Duration : 00:06:27.98 = 17109918 samples = 29098.5 CDDA sectors
File Size : 15.5M
Bit Rate : 320k
Sample Encoding: MPEG audio (layer I, II or III)
Comments :
Title=ДУМКИ, НЕНАЧЕ ЛИСТЯ
Artist=Чиста Криниця
Album=Храм природи
Tracknumber=02
Year=2019
Genre=Blackened Pagan/Folk Metal



Register


Go to the top of the page
  Insert nick Quick quote
+Quote Post

Reply to this topicStart new topic
1 User(s) are reading this topic (1 Guests and 0 Anonymous Users)
0 Members:

 



- Lo-Fi Version Support form
Copyrights and abuse reports form
Time is now: 1st April 2020 - 06:32:53