Welcome Guest ( Log In | Register )

> Releases Upload / Добавление релизов

Добавить релиз тут / Click here to add release
Рекомендованные обменники / Recommended file shares

 
Reply to this topicStart new topic
> Dorblack - Deep Waters Still Run (2020), Black Metal
post Mar 25 2020, 17:05:07
Post #1

Правь статус, ####!111
**************
Group: Металариец
Posts: 21,167
Releases: 14450
From: Г.Харьков
On Forums: 7 years 10 months
Thanks: 257535 time(s)
Unknown


(IMG:http://metalarea.org/images/audiocovers/2020_Mar/acov_tid335291_thumb.jpg)

*Artist: Dorblack
*Album: Deep Waters Still Run
*Year: 2020
*Genre: Black Metal
*Country: Belarus (IMG:http://metalarea.org/forum/style_images/flags/Belarus.png)
*Format: mp3@CBR320kbps
*Size: 77MB

Tracklist:
01. Entrance 01:53
02. The Chasing Chasm 05:22
03. In The Maze Of Transparency 04:05
04. The Shell 03:38
05. Deep Waters 02:55
06. He 04:04
07. Tebja (Dolphin Cover) 05:17
08. Anquish I Feed 06:01
******************************
Total playing time: 33:15


Preview 2

Extended info


Technical info
(IMG:http://metalarea.org/images/spectrogram/2020_Mar/c75b380439a5c42f0c887cdb7395e43f.png)
Input File: 03 - In The Maze Of Transparency.mp3
Channels : 2
Sample Rate : 44100
Precision : 16-bit
Duration : 00:04:05.31 = 10817995 samples = 18398 CDDA sectors
File Size : 9.93M
Bit Rate : 324k
Sample Encoding: MPEG audio (layer I, II or III)
Comments :
Title=In The Maze Of Transparency
Artist=Dorblack
Album=Deep Waters Still Run
Tracknumber=3
Year=2020
Genre=Rock



Register


Go to the top of the page
  Insert nick Quick quote
+Quote Post

Reply to this topicStart new topic
1 User(s) are reading this topic (1 Guests and 0 Anonymous Users)
0 Members:

 



- Lo-Fi Version Support form
Copyrights and abuse reports form
Time is now: 29th March 2020 - 03:47:18