Welcome Guest ( Log In | Register )

> Releases Upload / Добавление релизов

Добавить релиз тут / Click here to add release
Рекомендованные обменники / Recommended file shares

> Advent - Blue Pale Dot (2020), Doom/Death Metal (D)
post Mar 25 2020, 17:41:53
Post #1

Правь статус, ####!111
**************
Group: Металариец
Posts: 21,205
Releases: 14487
From: Г.Харьков
On Forums: 7 years 10 months
Thanks: 258285 time(s)
Unknown


(IMG:http://metalarea.org/images/audiocovers/2020_Mar/acov_tid335292_thumb.jpg)

*Artist: Advent
*Album: Blue Pale Dot
*Year: 2020
*Genre: Doom/Death Metal
*Country: Russian Federation (IMG:http://metalarea.org/forum/style_images/flags/Russian%20Federation.png)
*Format: mp3@CBR320kbps
*Size: 123MB

Tracklist:
1. Wrath of the Sun 08:41
2. Melting of Mountains 06:17
3. Desert of Ages 05:38
4. Breaker of Winds 07:06
5. Radiant Termination 05:30
6. Remembrance of the Dreaded 06:13
7. Distant Land 05:09
8. Blue Pale Dot 08:40
******************************
Total playing time: 53:14



Extended info
Gweld Anobaith All instruments (2012-present)
See also: Асфодел, ex-Prison of Mirrors
Lifestealer Vocals (2012-present)


Technical info
(IMG:http://metalarea.org/images/spectrogram/2020_Mar/15dbb266264318a94d80de7522e54c8e.png)
Input File: Advent - Blue Pale Dot - 03 Desert of Ages.mp3
Channels : 2
Sample Rate : 44100
Precision : 16-bit
Duration : 00:05:38.10 = 14909990 samples = 25357.1 CDDA sectors
File Size : 13.6M
Bit Rate : 323k
Sample Encoding: MPEG audio (layer I, II or III)
Comments :
Title=Desert of Ages
Artist=Advent
Album=Blue Pale Dot
Tracknumber=3
Year=2020



Register


Go to the top of the page
  Insert nick Quick quote
+Quote Post
 
Start new topic
Replies (1 - 1)
post Mar 26 2020, 17:23:13
Post #2

Group: Подсевший
Posts: 44
Releases: 0
On Forums: 2 years 1 month
Thanks: 18 time(s)
Belarus


Какая обложка - такое и содержание.
Go to the top of the page
  Insert nick Quick quote
+Quote Post

Reply to this topicStart new topic
2 User(s) are reading this topic (2 Guests and 0 Anonymous Users)
0 Members:

 



- Lo-Fi Version Support form
Copyrights and abuse reports form
Time is now: 1st April 2020 - 05:58:49