Welcome Guest ( Log In | Register )

> Releases Upload / Добавление релизов

Добавить релиз тут / Click here to add release
Рекомендованные обменники / Recommended file shares

 
Reply to this topicStart new topic
> Intoxxxicated - Rage (2020), Thrash Metal (D10)
post Mar 25 2020, 18:41:54
Post #1

Правь статус, ####!111
**************
Group: Металариец
Posts: 21,258
Releases: 14534
From: Г.Харьков
On Forums: 7 years 10 months
Thanks: 259285 time(s)
Unknown


(IMG:http://metalarea.org/images/audiocovers/2020_Mar/acov_tid335295_thumb.jpg)

*Artist: Intoxxxicated
*Album: Rage
*Year: 2020
*Genre: Thrash Metal
*Country: Mexico (IMG:http://metalarea.org/forum/style_images/flags/Mexico.png)
*Format: mp3@CBR320kbps
*Size: 63MB

Tracklist:
1. Fallen Angels
2. Get Insane
3. Need to Be Broken
4. ...from the Corpse
5. 66-6 Miles
6. Neurosis
7. Did I Kill Your Angel?
******************************
Total playing time: 29:06




Extended info
Enrique Parker Drums, Vocals (backing) (?-2017), Vocals
See also: Mourtoria (live), ex-Acrimonia, ex-Lust
Ramon "Demian" Espejo Guitars
See also: ex-Crossover, Rhuckuss
Marcel Sauza Guitars (2014-present)
See also: Arkhe
Raining Blood Drums (2017-present)
See also: Infection Attack, ex-Cöuntess
Mike Pineda Bass (2018-present)


Technical info
(IMG:http://metalarea.org/images/spectrogram/2020_Mar/85ce5d5615f7417986efb27d28875f2d.png)
Input File: 03. Need to Be Broken.mp3
Channels : 2
Sample Rate : 44100
Precision : 16-bit
Duration : 00:05:01.63 = 13301839 samples = 22622.2 CDDA sectors
File Size : 12.2M
Bit Rate : 324k
Sample Encoding: MPEG audio (layer I, II or III)
Comments :
Title=Need to Be Broken
Artist=IntoxXxicated
Album=Rage
Tracknumber=3/7
Year=2020
Genre=9
Discnumber=1/1



Register


Go to the top of the page
  Insert nick Quick quote
+Quote Post

Reply to this topicStart new topic
1 User(s) are reading this topic (1 Guests and 0 Anonymous Users)
0 Members:

 



- Lo-Fi Version Support form
Copyrights and abuse reports form
Time is now: 3rd April 2020 - 18:34:47