Welcome Guest ( Log In | Register )

> Releases Upload / Добавление релизов

Добавить релиз тут / Click here to add release
Рекомендованные обменники / Recommended file shares

> Дрём - Прощай [ep] (2020), Funeral Doom Metal (D4)
post Mar 25 2020, 18:44:51
Post #1

Group: Дух
Posts: 1
Releases: 1
On Forums: 1 year 7 months
Thanks: 15 time(s)
Russian Federation


(IMG:https://metalarea.org/images/audiocovers/2020_Mar/acov_tid335296_thumb.jpg)

*Artist: Дрём
*Album: Прощай [ep]
*Year: 2020
*Genre: Funeral Doom Metal
*Country: Russian Federation (IMG:https://metalarea.org/forum/style_images/flags/Russian%20Federation.png)
*Format: mp3@CBR320kbps
*Size: 69MB

Tracklist:
01. Rain
02. Прощай
03. The Sea (feat. Rapt)
******************************
Total playing time: 30:13



Technical info
(IMG:https://metalarea.org/images/spectrogram/2020_Mar/9b6fdcee07323fe775b954297dcfbefd.png)
Input File: 01. Rain.mp3
Channels : 2
Sample Rate : 44100
Precision : 16-bit
Duration : 00:08:48.91 = 23324799 samples = 39668 CDDA sectors
File Size : 21.2M
Bit Rate : 320k
Sample Encoding: MPEG audio (layer I, II or III)



Register


Go to the top of the page
  Insert nick Quick quote
+Quote Post
 
Start new topic
Replies (1 - 2)
post Mar 26 2020, 17:27:09
Post #2

Group: Подсевший
Posts: 44
Releases: 0
On Forums: 2 years 2 months
Thanks: 18 time(s)
Belarus


После шикарного дебютного альбома, коллектив скоропостижно скончался.


Thanks:
(1) Evilded,
Go to the top of the page
  Insert nick Quick quote
+Quote Post
post Mar 26 2020, 17:47:35
Post #3

Full-of-Hate
**************
Group: Металариец
Posts: 3,463
Releases: 0
From: Moscow
On Forums: 10 years 9 months
Thanks: 3158 time(s)
Russian Federation


Этот эксперимент что-то мне вообще никак не откликнулся. Если ранний Дрём был тяжеловесным и хорошенько так надавливал, то сейчас проект ринулся в ведомые только автору творения дебри.
Go to the top of the page
  Insert nick Quick quote
+Quote Post

Reply to this topicStart new topic
1 User(s) are reading this topic (1 Guests and 0 Anonymous Users)
0 Members:

 



- Lo-Fi Version Support form
Copyrights and abuse reports form
Time is now: 3rd April 2020 - 17:29:12