Welcome Guest ( Log In | Register )

> Releases Upload / Добавление релизов

Добавить релиз тут / Click here to add release
Рекомендованные обменники / Recommended file shares

> Astral Chaos - It All Comes Crashing Down [ep] (2020), Melodic Death Metal
post Mar 25 2020, 19:13:45
Post #1

Правь статус, ####!111
**************
Group: Металариец
Posts: 21,205
Releases: 14487
From: Г.Харьков
On Forums: 7 years 10 months
Thanks: 258281 time(s)
Unknown


(IMG:http://metalarea.org/images/audiocovers/2020_Mar/acov_tid335298_thumb.jpg)

*Artist: Astral Chaos
*Album: It All Comes Crashing Down [ep]
*Year: 2020
*Genre: Melodic Death Metal
*Country: United States (IMG:http://metalarea.org/forum/style_images/flags/United%20States.png)
*Format: mp3@CBR320kbps
*Size: 39MB

Tracklist:
1. The World Burns 04:25
2. It All Comes Crashing Down 04:11
3. Darkness Within 04:41
4. Villains of Our Mindset 03:18
******************************
Total playing time: 16:35




Extended info
Jonathan Coombs Bass
HP Lovethrash Drums
Rich Staats Guitars
Jesse Morgan Guitars
David Rolnick Vocals


Technical info
(IMG:http://metalarea.org/images/spectrogram/2020_Mar/73376e9d37c2595aec7d2c1613c0b8f3.png)
Input File: 03 - Darkness Within.mp3
Channels : 2
Sample Rate : 44100
Precision : 16-bit
Duration : 00:04:41.88 = 12430908 samples = 21141 CDDA sectors
File Size : 11.4M
Bit Rate : 324k
Sample Encoding: MPEG audio (layer I, II or III)
Comments :
Title=Darkness Within
Artist=Astral Chaos
Album=It All Comes Crashing Down
Tracknumber=3
Year=2020-03-24
Genre=Metal
Discnumber=1



Register


Go to the top of the page
  Insert nick Quick quote
+Quote Post
 
Start new topic
Replies (1 - 1)
post Mar 28 2020, 16:54:44
Post #2

MDM-Thrash Metal
**************
Group: Металариец
Posts: 9,341
Releases: 790
From: Одесса
On Forums: 12 years 7 months
Thanks: 21270 time(s)
Ukraine


Очень прилично! Учитывая, что со стилем полная беда в последнее время, то данный материал как нельзя кстати. Без кора, соплей, чистоголосья и прочей ненужности - материал воспринимается очень положительно.


Thanks:
Go to the top of the page
  Insert nick Quick quote
+Quote Post

Reply to this topicStart new topic
1 User(s) are reading this topic (1 Guests and 0 Anonymous Users)
0 Members:

 



- Lo-Fi Version Support form
Copyrights and abuse reports form
Time is now: 1st April 2020 - 05:41:13