Welcome Guest ( Log In | Register )

> Releases Upload / Добавление релизов

Добавить релиз тут / Click here to add release
Рекомендованные обменники / Recommended file shares

> Wishdoomdark - Fires [ep] (2020), Doom/Death Metal (D5)
post Mar 25 2020, 20:12:34
Post #1

Правь статус, ####!111
**************
Group: Металариец
Posts: 45,596
Releases: 703
On Forums: 10 years 9 months
Thanks: 37525 time(s)
Russian Federation


(IMG:http://metalarea.org/images/audiocovers/2020_Mar/acov_tid335302_thumb.jpg)

*Artist: Wishdoomdark
*Album: Fires [ep]
*Year: 2020
*Genre: Doom/Death Metal
*Country: Russian Federation (IMG:http://metalarea.org/forum/style_images/flags/Russian%20Federation.png)
*Format: mp3@CBR320kbps
*Size: 43MB

Tracklist:
1. In Hell 03:10
2. Murder (Katatonia cover) 04:46
3. On Snow Wood 02:55
4. Pesn' 1 (Batushka cover) 04:07
5. Utopia (Live) 03:48
******************************
Total playing time: 18:46



Technical info
(IMG:http://metalarea.org/images/spectrogram/2020_Mar/1a56d317eed03e04636337e6d0745a1c.png)
Input File: 01 Wishdoomdark - In Hell.mp3
Channels : 2
Sample Rate : 44100
Precision : 16-bit
Duration : 00:03:10.29 = 8391613 samples = 14271.5 CDDA sectors
File Size : 7.73M
Bit Rate : 325k
Sample Encoding: MPEG audio (layer I, II or III)
Comments :
Title=Wishdoomdark - In Hell
Artist=Dark East Productions
Album=Wishdoomdark - Fires



Register


Go to the top of the page
  Insert nick Quick quote
+Quote Post
 
Start new topic
Replies (1 - 9)
post Mar 26 2020, 12:58:26
Post #2

Правь статус, ####!111
**************
Group: Металариец
Posts: 45,596
Releases: 703
On Forums: 10 years 9 months
Thanks: 37525 time(s)
Russian Federation


Обложка красивая.
Go to the top of the page
  Insert nick Quick quote
+Quote Post
post Mar 26 2020, 13:01:23
Post #3

Ледоруб
**************
Group: Металариец
Posts: 24,335
Releases: 0
From: Санкт-Петербург
On Forums: 10 years 6 months
Thanks: 8342 time(s)
Russian Federation


Очередная темя для унижения 80-го?
Go to the top of the page
  Insert nick Quick quote
+Quote Post
post Mar 26 2020, 13:04:15
Post #4

И Ван Дамм По Делам Вашим!
**************
Group: Металариец
Posts: 18,715
Releases: 26
On Forums: 11 years 8 months
Thanks: 10348 time(s)
Honduras


Go to the top of the page
  Insert nick Quick quote
+Quote Post
post Mar 26 2020, 13:06:13
Post #5

Семь Литров
*******
Group: Металариец
Posts: 743
Releases: 0
On Forums: 4 months 19 minutes
Thanks: 563 time(s)
Russian Federation


Сия формация стремится стать маскотом МА в 2020.


Thanks:
(1) ingram,
Go to the top of the page
  Insert nick Quick quote
+Quote Post
post Mar 26 2020, 13:07:57
Post #6

Правь статус, ####!111
**************
Group: Металариец
Posts: 45,596
Releases: 703
On Forums: 10 years 9 months
Thanks: 37525 time(s)
Russian Federation


Мне интересно, насколько по Вашему мнению, им удались каверы?
Go to the top of the page
  Insert nick Quick quote
+Quote Post
post Mar 26 2020, 13:13:59
Post #7

ГОСПОДЬ
**************
Group: Металариец
Posts: 3,779
Releases: 162
On Forums: 9 years 7 months
Thanks: 5367 time(s)
Unknown


ЦИТАТА(vosmidesijatye @ Mar 26 2020, 15:07:57) *
Мне интересно, насколько по Вашему мнению, им удались каверы?

Да тут сами оригиналы не удались.


Thanks:
Go to the top of the page
  Insert nick Quick quote
+Quote Post
post Mar 26 2020, 13:41:27
Post #8

Восемь Литров
********
Group: Металариец
Posts: 806
Releases: 0
On Forums: 1 year 8 months
Thanks: 769 time(s)
Unknown


Оригиналы то хорошие, но слушать в их исполнении точно не стоит.
Go to the top of the page
  Insert nick Quick quote
+Quote Post
post Mar 26 2020, 13:56:53
Post #9

ΕΥΜΕΝΙΔΕΣ
**************
Group: Металариец
Posts: 2,265
Releases: 27
From: Kænugarður
On Forums: 13 years 1 month
Thanks: 3109 time(s)
Ukraine


ЦИТАТА(vosmidesijatye @ Mar 25 2020, 21:12:34) *
4. Pesn' 1 (Batushka cover) 04:07

Я почему-то не удивлен. (IMG:style_emoticons/default/1488.gif)
Go to the top of the page
  Insert nick Quick quote
+Quote Post
post Mar 27 2020, 02:54:45
Post #10

Leegte
***********
Group: Металариец
Posts: 1,607
Releases: 14
From: Kiovia
On Forums: 7 years 11 months
Thanks: 2309 time(s)
Ukraine


QUOTE
On Snow Wood

А это как? На лесу из снега? Или на древесине из снега?

Проскроллил — гаражная самодеятельность. Да и аффтар зашкварился в соседней теме.
Я не имею ничего против деth-дума 90-х, но в данном случае это явно не синоним самобытности.
пошёл ностальгировать под Te Deum


Thanks:
(1) Ghostb,
Go to the top of the page
  Insert nick Quick quote
+Quote Post

Reply to this topicStart new topic
1 User(s) are reading this topic (1 Guests and 0 Anonymous Users)
0 Members:

 



- Lo-Fi Version Support form
Copyrights and abuse reports form
Time is now: 29th March 2020 - 04:09:59