Welcome Guest ( Log In | Register )

> Releases Upload / Добавление релизов

Добавить релиз тут / Click here to add release
Рекомендованные обменники / Recommended file shares

 
Reply to this topicStart new topic
> Ormagoden - The Den Of Sin [ep] (2020), Heavy/Thrash Metal
post Mar 25 2020, 20:33:06
Post #1

Правь статус, ####!111
**************
Group: Металариец
Posts: 21,205
Releases: 14487
From: Г.Харьков
On Forums: 7 years 10 months
Thanks: 258285 time(s)
Unknown


(IMG:http://metalarea.org/images/audiocovers/2020_Mar/acov_tid335303_thumb.jpg)

*Artist: Ormagoden
*Album: The Den Of Sin [ep]
*Year: 2020
*Genre: Heavy/Thrash Metal
*Country: France (IMG:http://metalarea.org/forum/style_images/flags/France.png)
*Format: mp3@CBR320kbps
*Size: 53MB

Tracklist:
1. The Den of Sin 04:32
2. Panem Et Circenses 03:23
3. Liar States of Freedom 04:28
4. Faith Bathed in Blood 03:18
5. Kill the Weak 03:46
6. Nuclear Strike 03:32
******************************
Total playing time: 22:59




Extended info
Alex Muscara Bass, Vocals (backing)
Leo Mouchonay Drums
Lucas Rocher Guitars, Vocals (backing)
Victor Lachat Vocals, Guitars
See also: ex-Eyezery


Technical info
(IMG:http://metalarea.org/images/spectrogram/2020_Mar/1d40c0b82e5a3fccda71fd73ec887b51.png)
Input File: 03 - Liar States of Freedom.mp3
Channels : 2
Sample Rate : 44100
Precision : 16-bit
Duration : 00:04:28.14 = 11824886 samples = 20110.4 CDDA sectors
File Size : 10.8M
Bit Rate : 323k
Sample Encoding: MPEG audio (layer I, II or III)
Comments :
Title=Liar States of Freedom
Artist=Ormagoden
Album=THE DEN of SIN
Tracknumber=3
Year=2020-03-17
Genre=Metal
Discnumber=1



Register


Go to the top of the page
  Insert nick Quick quote
+Quote Post

Reply to this topicStart new topic
2 User(s) are reading this topic (2 Guests and 0 Anonymous Users)
0 Members:

 



- Lo-Fi Version Support form
Copyrights and abuse reports form
Time is now: 1st April 2020 - 06:10:27