Welcome Guest ( Log In | Register )

> Releases Upload / Добавление релизов

Добавить релиз тут / Click here to add release
Рекомендованные обменники / Recommended file shares

 
Reply to this topicStart new topic
> Nôidva - Windseller (2020), Black Metal
post Mar 25 2020, 22:39:51
Post #1

Правь статус, ####!111
**************
Group: Металариец
Posts: 4,281
Releases: 1191
From: Brazil
On Forums: 8 years 2 months
Thanks: 44241 time(s)
Brazil


(IMG:https://metalarea.org/images/audiocovers/2020_Mar/acov_tid335304_thumb.jpg)

*Artist: Nôidva
*Album: Windseller
*Year: 2020
*Genre: Black Metal
*Country: Finland (IMG:https://metalarea.org/forum/style_images/flags/Finland.png)
*Format: mp3@CBR320kbps
*Size: 62MB

Tracklist:
1. Windseller 05:10
2. Followers of the North Star 05:59
3. Häilän Joiku 02:00
4. Into Polar Nights 05:50
5. Eclipsed by Goahti's Blood 04:28
6. Vindictive Old Ones 03:35
******************************
Total playing time: 27:02

(IMG:https://metalarea.org/images/youtube.png)

Extended info
Purity Through Fire
Worship Tapes

Awesome Black Metal from Finland, a must for Fans of
Antimateria, Nattfog, Goatmoon!

Featuring members of Riivaus & Sacrificium Carmen


Technical info
(IMG:https://metalarea.org/images/spectrogram/2020_Mar/6c51df433af0730876c10e4bfa6ed8ff.png)
Input File: 01 Windseller.mp3
Channels : 2
Sample Rate : 44100
Precision : 16-bit
Duration : 00:05:10.09 = 13674969 samples = 23256.7 CDDA sectors
File Size : 12.4M
Bit Rate : 320k
Sample Encoding: MPEG audio (layer I, II or III)
Comments :
Title=Windseller
Artist=Nôidva
Album=Windseller
Tracknumber=1
Year=2020



Register


Go to the top of the page
  Insert nick Quick quote
+Quote Post

Reply to this topicStart new topic
2 User(s) are reading this topic (2 Guests and 0 Anonymous Users)
0 Members:

 



- Lo-Fi Version Support form
Copyrights and abuse reports form
Time is now: 1st April 2020 - 05:34:15