Welcome Guest ( Log In | Register )

> Molested Divinity - Unearthing The Void (2020), Brutal Death Metal
post Mar 25 2020, 23:28:33
Post #1

Правь статус, ####!111
**************
Group: Металариец
Posts: 21,863
Releases: 15074
From: Г.Харьков
On Forums: 8 years 2 weeks
Thanks: 273123 time(s)
Unknown


(IMG:http://metalarea.org/images/audiocovers/2020_Mar/acov_tid335306_thumb.jpg)

*Artist: Molested Divinity
*Album: Unearthing The Void
*Year: 2020
*Genre: Brutal Death Metal
*Country: Turkey (IMG:http://metalarea.org/forum/style_images/flags/Turkey.png)
*Format: mp3@CBR320kbps
*Size: 65MB

Tracklist:
1. Dogmatic Imprecation 03:13
2. Unearthing the Void 03:27
3. Antediluvian Anguish 03:29
4. Molesting the Divine 04:55
5. Preaching Above the Impenetrable 03:19
6. Abnegating the Deities 03:34
7. Chasmic Absorption Through Portals of Dissaray 02:58
8. Aversive Perpetuity 02:56
******************************
Total playing time: 27:51




Extended info
Berk Köktürk Drums (2016-present)
See also: Cidesphere, Decimation, Raven Woods
Emre Üren Guitars, Bass (2016-present)
See also: Decimation, ex-Raven Woods
Batu Çetin Vocals (2016-present)
See also: Cenotaph, Coprobaptized Cunthunter, Drain of Impurity, Grotesque Ceremonium, Phosgendöd, Womb of Decay, Decimation (live), ex-Bereavement, ex-Strappado, ex-Blutmond (live), ex-Carnophage (live)
Cihan Akün Bass (2018-present)
See also: Burial Invocation, Cenotaph, ex-Raven Woods, ex-Carnophage (live), ex-Nettlethrone (live)


Technical info
(IMG:http://metalarea.org/images/spectrogram/2020_Mar/5227e17d7e95d658bbe9a19d9e33c194.png)
Input File: New Standard Elite - Molested Divinity - Unearthing the Void - 04 Molesting the Divine.mp3
Channels : 2
Sample Rate : 44100
Precision : 16-bit
Duration : 00:04:55.46 = 13029830 samples = 22159.6 CDDA sectors
File Size : 12.0M
Bit Rate : 324k
Sample Encoding: MPEG audio (layer I, II or III)
Comments :
Title=Molesting the Divine
Artist=New Standard Elite
Album=Molested Divinity | Unearthing the Void
Tracknumber=4
Year=2020



Register


Go to the top of the page
  Insert nick Quick quote
+Quote Post
 
Start new topic
Replies (1 - 4)
post Mar 27 2020, 11:43:09
Post #2

Шесть Литров
******
Group: Металариец
Posts: 593
Releases: 0
From: APATIN, SERBIA, АПАТИН, СЕРБИЯ
On Forums: 12 years 7 months
Thanks: 905 time(s)



Flac

Register


Thanks:
(1) SnaP,
Go to the top of the page
  Insert nick Quick quote
+Quote Post
post Apr 1 2020, 13:33:40
Post #3

Правь статус, ####!111
**************
Group: Металариец
Posts: 3,876
Releases: 14
From: Москва и МО
On Forums: 13 years 10 months
Thanks: 1121 time(s)
Russian Federation


Идейное продолжение прошлого альбома (будто бы прошлый альбом имел какую-то идею (IMG:style_emoticons/default/smile1.gif) ), с чуть более утробным саундом с более громкими низкими частотами.
Отличить от прошлого почти невозможно.
Просто хороший брутал, который можно включить на короткие 27 минут, чтобы расслабиться и получить неплохой заряд бодрости.


Thanks:
Go to the top of the page
  Insert nick Quick quote
+Quote Post
post Apr 1 2020, 14:53:58
Post #4

За Русь в метро взорвусь
**************
Group: Металариец
Posts: 2,859
Releases: 2
From: Yaroslavl
On Forums: 3 years 8 months
Thanks: 1789 time(s)
Northern Mariana Islands


Бату Сетин неплохо рычит кстати, помню его по Ценотафу.
А музыка скучная, сразу зевать и в сон клонит.
(IMG:style_emoticons/default/21.gif)
Go to the top of the page
  Insert nick Quick quote
+Quote Post
post May 25 2020, 20:22:07
Post #5
BAN
Banned till
Jun 3 2020, 15:46:22



Molested Divinity - это дитя, рожденное в союзе Cenotaph и Decimation.
Лупят знатно, приятно, мощно. И ни разу не скучно. Музыка во многом тяготеет к Cenotaph и никто не заметил бы подмены, будь музыка выпущена под этим именем =)))
Понравилось, хотя понимая, что в составе есть люди из Decimation, предполагалось услышать нечто хоть сколько-нибудь одаренное интеллектом, но нет, не в этот раз.


Thanks:
Go to the top of the page
  Insert nick Quick quote
+Quote Post

Reply to this topicStart new topic
1 User(s) are reading this topic (1 Guests and 0 Anonymous Users)
0 Members:

 



- Lo-Fi Version Support form
Copyrights and abuse reports form
Time is now: 28th May 2020 - 04:50:39