Welcome Guest ( Log In | Register )

> Releases Upload / Добавление релизов

Добавить релиз тут / Click here to add release
Рекомендованные обменники / Recommended file shares

 
Reply to this topicStart new topic
> Martial Law - Blatant Disregard For Human Life (2015), Thrash Metal
post Mar 26 2020, 00:39:31
Post #1

Правь статус, ####!111
**************
Group: Металариец
Posts: 21,205
Releases: 14487
From: Г.Харьков
On Forums: 7 years 10 months
Thanks: 258290 time(s)
Unknown


(IMG:http://metalarea.org/images/audiocovers/2020_Mar/acov_tid335307_thumb.jpg)

*Artist: Martial Law
*Album: Blatant Disregard For Human Life
*Year: 2015
*Genre: Thrash Metal
*Country: Canada (IMG:http://metalarea.org/forum/style_images/flags/Canada.png)
*Format: mp3@CBR320kbps
*Size: 57MB

Tracklist:
1. Thick Skull 04:03
2. The Agenda 04:09
3. Subservient 02:47
4. Data Master 03:55
5. Corrosive Decisions 03:04
6. Nothing Changes 03:15
7. Transparency 03:20
******************************
Total playing time: 24:33




Extended info
Без третьего трека (кавера)
Kiefer Murphy Drums
See also: Hive
Blaine French Guitars
Blaise Elchuk Vocals, Bass


Technical info
(IMG:http://metalarea.org/images/spectrogram/2020_Mar/1c78a158090ff47517c88740f8a67cb1.png)
Input File: 04 - Data Master.mp3
Channels : 2
Sample Rate : 44100
Precision : 16-bit
Duration : 00:03:55.33 = 10377921 samples = 17649.5 CDDA sectors
File Size : 9.57M
Bit Rate : 325k
Sample Encoding: MPEG audio (layer I, II or III)
Comments :
Title=Data Master
Artist=Martial Law
Album=Blatant Disregard for Human Life
Tracknumber=4
Year=2015-07-13
Genre=Metal
Discnumber=1



Register


Go to the top of the page
  Insert nick Quick quote
+Quote Post

Reply to this topicStart new topic
2 User(s) are reading this topic (2 Guests and 0 Anonymous Users)
0 Members:

 



- Lo-Fi Version Support form
Copyrights and abuse reports form
Time is now: 1st April 2020 - 06:35:46