Welcome Guest ( Log In | Register )

> Releases Upload / Добавление релизов

Добавить релиз тут / Click here to add release
Рекомендованные обменники / Recommended file shares

 
Reply to this topicStart new topic
> Vegard - Bewitched By Moonlight Rituals (2020), Atmospheric Black Metal
post Mar 26 2020, 02:00:01
Post #1

Правь статус, ####!111
**************
Group: Металариец
Posts: 21,205
Releases: 14487
From: Г.Харьков
On Forums: 7 years 10 months
Thanks: 258283 time(s)
Unknown


(IMG:http://metalarea.org/images/audiocovers/2020_Mar/acov_tid335308_thumb.jpg)

*Artist: Vegard
*Album: Bewitched By Moonlight Rituals
*Year: 2020
*Genre: Atmospheric Black Metal
*Country: United Kingdom (IMG:http://metalarea.org/forum/style_images/flags/United%20Kingdom.png)
*Format: mp3@CBR320kbps
*Size: 115MB

Tracklist:
1. Arcane Winter Forest Mysteries 07:40
2. Ageless Autumnal Lairs 06:03
3. Summoned to Dusk 06:30
4. Rituals in Midnight Majesty 02:04
5. Ancient Woodland Tyrants 07:03
6. Dungeons Forgotten and Deep 02:58
7. Transcendent Sorrow 06:42
8. Thy Immutable Nightfall 06:26
9. A Tomb, Shrouded in Mists 05:15
******************************
Total playing time: 50:41



Technical info
(IMG:http://metalarea.org/images/spectrogram/2020_Mar/92a1205a2cd04e55d02a1615094504e1.png)
Input File: 03 - Summoned to Dusk.mp3
Channels : 2
Sample Rate : 44100
Precision : 16-bit
Duration : 00:06:30.73 = 17231237 samples = 29304.8 CDDA sectors
File Size : 15.6M
Bit Rate : 320k
Sample Encoding: MPEG audio (layer I, II or III)
Comments :
Title=Summoned to Dusk
Artist=Vegard
Album=Bewitched by Moonlight Rituals
Tracknumber=3
Year=2020
Genre=Black Metal



Register


Go to the top of the page
  Insert nick Quick quote
+Quote Post

Reply to this topicStart new topic
2 User(s) are reading this topic (2 Guests and 0 Anonymous Users)
0 Members:

 



- Lo-Fi Version Support form
Copyrights and abuse reports form
Time is now: 1st April 2020 - 05:56:08