Welcome Guest ( Log In | Register )

> Releases Upload / Добавление релизов

Добавить релиз тут / Click here to add release
Рекомендованные обменники / Recommended file shares

> Death & Legacy - Inf3Rno (2020), Melodic Death Metal
post Mar 26 2020, 07:49:59
Post #1

Правь статус, ####!111
**************
Group: Металариец
Posts: 6,323
Releases: 5826
From: Lithuania
On Forums: 13 years 5 months
Thanks: 43311 time(s)
Lithuania


(IMG:https://metalarea.org/images/audiocovers/2020_Mar/acov_tid335309_thumb.jpg)

*Artist: Death & Legacy
*Album: Inf3Rno
*Year: 2020
*Genre: Melodic Death Metal
*Country: Spain (IMG:https://metalarea.org/forum/style_images/flags/Spain.png)
*Format: mp3@CBR320kbps
*Size: 73MB

Tracklist:
1. Pray
2. Salvation
3. Insane
4. Hellfire
5. Dead Soul
6. Carnage
7. PC494
8. In Time
******************************
Total playing time: 31:28


(IMG:https://metalarea.org/images/youtube.png)

Technical info
(IMG:https://metalarea.org/images/spectrogram/2020_Mar/140a0448b916ec6fa9938c346ab2a321.png)
Input File: 2 - Salvation.mp3
Channels : 2
Sample Rate : 44100
Precision : 16-bit
Duration : 00:03:12.14 = 8473550 samples = 14410.8 CDDA sectors
File Size : 7.75M
Bit Rate : 323k
Sample Encoding: MPEG audio (layer I, II or III)
Comments :
Title=Salvation
Artist=Death & Legacy
Album=INF3RNO
Tracknumber=2
Year=2020
Genre=Metal
Discnumber=1



Register


Go to the top of the page
  Insert nick Quick quote
+Quote Post
 
Start new topic
Replies (1 - 3)
post Mar 26 2020, 11:12:01
Post #2

hearer & reader
**************
Group: Металариец
Posts: 8,503
Releases: 130
From: Moscow
On Forums: 12 years 6 months
Thanks: 8337 time(s)
Russian Federation


Дебют - Death & Legacy - Burning Death (2014), если кому надо...
И продолжение - Death & Legacy - Silence (2016)
Превью: https://music.yandex.ru/album/10082862
Go to the top of the page
  Insert nick Quick quote
+Quote Post
post Mar 26 2020, 16:31:16
Post #3

Маньяк
**********
Group: Металариец
Posts: 1,010
Releases: 4
From: Харьков
On Forums: 11 years 7 months
Thanks: 357 time(s)
Ukraine




Thanks:
(1) DenisKov,
Go to the top of the page
  Insert nick Quick quote
+Quote Post
post Today, 01:59:07
Post #4

Ъ
**************
Group: Металариец
Posts: 9,999
Releases: 9
On Forums: 11 years 2 months
Thanks: 1983 time(s)
Sweden


Третьесорт, еще и сиськи замылили.

ЗЫ Очередная Анжела местного пошиба.
Go to the top of the page
  Insert nick Quick quote
+Quote Post

Reply to this topicStart new topic
1 User(s) are reading this topic (1 Guests and 0 Anonymous Users)
0 Members:

 



- Lo-Fi Version Support form
Copyrights and abuse reports form
Time is now: 29th March 2020 - 03:56:11