Welcome Guest ( Log In | Register )

> Releases Upload / Добавление релизов

Добавить релиз тут / Click here to add release
Рекомендованные обменники / Recommended file shares

 
Reply to this topicStart new topic
> Pinch Black - Exorcism (2020), Black/Death Metal
post Mar 26 2020, 08:04:44
Post #1

Правь статус, ####!111
**************
Group: Металариец
Posts: 6,323
Releases: 5826
From: Lithuania
On Forums: 13 years 5 months
Thanks: 43311 time(s)
Lithuania


(IMG:https://metalarea.org/images/audiocovers/2020_Mar/acov_tid335310_thumb.jpg)

*Artist: Pinch Black
*Album: Exorcism
*Year: 2020
*Genre: Black/Death Metal
*Country: Germany (IMG:https://metalarea.org/forum/style_images/flags/Germany.png)
*Format: mp3@CBR320kbps
*Size: 123MB

Tracklist:
1. End Of Life
2. Dance With The Dead
3. Downfall Of The Earth
4. Exorcism
5. Dark Autmn Day
6. Hollow Dreams
7. Burn It Down
8. Dethmachine
9. Satanas
10. From Heaven To Hell
11. Ode To The Author
12. Sirens
13. We Are Your Gods
******************************
Total playing time: 53:58

(IMG:https://metalarea.org/images/youtube.png)
)

Technical info
(IMG:https://metalarea.org/images/spectrogram/2020_Mar/9ec009f3c93fe0db0d3074972bd11795.png)
Input File: 02 - Dance With the Dead.mp3
Channels : 2
Sample Rate : 44100
Precision : 16-bit
Duration : 00:02:50.07 = 7500043 samples = 12755.2 CDDA sectors
File Size : 6.80M
Bit Rate : 320k
Sample Encoding: MPEG audio (layer I, II or III)
Comments :
Title=Dance With the Dead
Artist=Pinch Black
Album=Exorcism
Tracknumber=2
Year=2020
Genre=Metal
Discnumber=1



Register


Go to the top of the page
  Insert nick Quick quote
+Quote Post

Reply to this topicStart new topic
1 User(s) are reading this topic (1 Guests and 0 Anonymous Users)
0 Members:

 



- Lo-Fi Version Support form
Copyrights and abuse reports form
Time is now: 29th March 2020 - 04:19:31