Welcome Guest ( Log In | Register )

> Releases Upload / Добавление релизов

Добавить релиз тут / Click here to add release
Рекомендованные обменники / Recommended file shares

> Temenigru - Temenigru (2020), Progressive Melodic Death/Cyber Metal
post Mar 26 2020, 09:38:31
Post #1

Правь статус, ####!111
**************
Group: Металариец
Posts: 6,350
Releases: 5850
From: Lithuania
On Forums: 13 years 5 months
Thanks: 43470 time(s)
Lithuania


(IMG:https://metalarea.org/images/audiocovers/2020_Mar/acov_tid335311_thumb.jpg)

*Artist: Temenigru
*Album: Temenigru
*Year: 2020
*Genre: Progressive Melodic Death/Cyber Metal
*Country: United States (IMG:https://metalarea.org/forum/style_images/flags/United%20States.png)
*Format: mp3@CBR320kbps
*Size: 76MB

Tracklist:
01. Equivalent Exchange
02. Tragedy of Mormegil
03. As Above So Below
04. Event Horizon
05. The Darkness Beneath
06. Mocking
07. Shadows Die Twice
08. Summoning The Wyrm
09. Absolution // Ascension
10. Lusting for the End of Undeath
******************************
Total playing time: 32:21




Technical info
(IMG:https://metalarea.org/images/spectrogram/2020_Mar/f24e42543a01ff50959d7a24ba9d870f.png)
Input File: Temenigru - Temenigru - 02 Tragedy of Mormegil.mp3
Channels : 2
Sample Rate : 44100
Precision : 16-bit
Duration : 00:03:51.75 = 10219955 samples = 17380.9 CDDA sectors
File Size : 9.45M
Bit Rate : 326k
Sample Encoding: MPEG audio (layer I, II or III)
Comments :
Title=Tragedy of Mormegil
Artist=Temenigru
Album=Temenigru
Tracknumber=2
Year=2020
Genre=9



Register


Go to the top of the page
  Insert nick Quick quote
+Quote Post
 
Start new topic
Replies (1 - 2)
post Mar 26 2020, 17:52:58
Post #2

тебе 29, а ты все реверсами балуешься
***********
Group: Металариец
Posts: 1,903
Releases: 4
On Forums: 11 years 8 months
Thanks: 627 time(s)
Russian Federation


Шняга с унылым вокалом и трескотнёй сверчкой на бочке (IMG:style_emoticons/default/21.gif)
Go to the top of the page
  Insert nick Quick quote
+Quote Post
post Mar 27 2020, 04:30:23
Post #3

Grind the Human Scum
*********
Group: Металариец
Posts: 992
Releases: 18
On Forums: 13 years 2 months
Thanks: 935 time(s)
Russian Federation


ЦИТАТА(Foneg @ Mar 26 2020, 19:52:58) *
Шняга с унылым вокалом и трескотнёй сверчкой на бочке (IMG:style_emoticons/default/21.gif)


так вот что такое кибер метал, а я то думал (IMG:style_emoticons/default/1488.gif)
Go to the top of the page
  Insert nick Quick quote
+Quote Post

Reply to this topicStart new topic
2 User(s) are reading this topic (2 Guests and 0 Anonymous Users)
0 Members:

 



- Lo-Fi Version Support form
Copyrights and abuse reports form
Time is now: 1st April 2020 - 06:18:41