Welcome Guest ( Log In | Register )

> Releases Upload / Добавление релизов

Добавить релиз тут / Click here to add release
Рекомендованные обменники / Recommended file shares

> Paganizer - Death Through The Copperfields [live] (2020), Death Metal (D)
post Mar 26 2020, 09:56:21
Post #1

Правь статус, ####!111
**************
Group: Металариец
Posts: 6,350
Releases: 5850
From: Lithuania
On Forums: 13 years 5 months
Thanks: 43470 time(s)
Lithuania


(IMG:https://metalarea.org/images/audiocovers/2020_Mar/acov_tid335312_thumb.jpg)

*Artist: Paganizer
*Album: Death Through The Copperfields [live]
*Year: 2020
*Genre: Death Metal
*Country: Sweden (IMG:https://metalarea.org/forum/style_images/flags/Sweden.png)
*Format: mp3@CBR320kbps
*Size: 105MB

Tracklist:
1. On a Gurney to Hell 03:47
2. Their Skin Suits Me 03:28
3. Rot 03:27
4. Scandinavian Warmachine 03:12
5. Landscapes Made of Human Skin 03:44
6. Gasmask Obsession 02:15
7. Afterlife Burner 03:44
8. Mass of Parasites 03:29
9. Souls for Sale 03:48
10. The Aeon Machinery 05:24
11. Du vaknar som död 02:18
12. No Divine Rapture 05:01
******************************
Total playing time: 43:37




Technical info
(IMG:https://metalarea.org/images/spectrogram/2020_Mar/4d9f013eb9b7ca3bf64365724ec1c502.png)
Input File: Paganizer - Death Through the Copperfields - 02. Their Skin Suits Me.mp3
Channels : 2
Sample Rate : 44100
Precision : 16-bit
Duration : 00:03:28.50 = 9194718 samples = 15637.3 CDDA sectors
File Size : 8.85M
Bit Rate : 340k
Sample Encoding: MPEG audio (layer I, II or III)
Comments :
Title=Their Skin Suits Me
Artist=Paganizer
Album=Death Through the Copperfields (320)
Tracknumber=02/12
Year=2020
Genre=Death Metal



Register


Go to the top of the page
  Insert nick Quick quote
+Quote Post
 
Start new topic
Replies (1 - 1)
post Mar 26 2020, 15:38:07
Post #2

hearer & reader
**************
Group: Металариец
Posts: 8,503
Releases: 130
From: Moscow
On Forums: 12 years 6 months
Thanks: 8347 time(s)
Russian Federation


Кто-то добрый выставил пики на ~40% (IMG:style_emoticons/default/hmm.gif)
Go to the top of the page
  Insert nick Quick quote
+Quote Post

Reply to this topicStart new topic
1 User(s) are reading this topic (1 Guests and 0 Anonymous Users)
0 Members:

 



- Lo-Fi Version Support form
Copyrights and abuse reports form
Time is now: 1st April 2020 - 06:24:20