Welcome Guest ( Log In | Register )

> И неформату есть предел.

Рэп/хип-хоп/шансон/поп удаляются. Для них есть свои порталы.

> Mr. Elevator - Goodbye, Blue Sky (2020), 60´s Psychedelic Rock
post Mar 26 2020, 09:59:30
Post #1

Правь статус, ####!111
**************
Group: Металариец
Posts: 45,596
Releases: 703
On Forums: 10 years 9 months
Thanks: 37525 time(s)
Russian Federation


(IMG:http://metalarea.org/images/audiocovers/2020_Mar/acov_tid335313_thumb.jpg)

*Artist: Mr. Elevator
*Album: Goodbye, Blue Sky
*Year: 2020
*Genre: 60´s Psychedelic Rock
*Country: United States (IMG:http://metalarea.org/forum/style_images/flags/United%20States.png)
*Format: mp3@CBR320kbps
*Size: 79MB

Tracklist:
1. Waiting 03:17
2. Love Again 03:37
3. Alone Together 03:38
4. Bamboo Forest 02:45
5. Anywhere 03:55
6. Brobdingag 04:00
7. Down 02:42
8. Kompressor 03:28
9. Sylvia 02:34
10. Patterns 05:33
******************************
Total playing time: 35:29



Technical info
(IMG:http://metalarea.org/images/spectrogram/2020_Mar/f2687fda846ccfe5c3322c6593911488.png)
Input File: 01-mr_elevator-waiting-d0c1b9f1.mp3
Channels : 2
Sample Rate : 44100
Precision : 16-bit
Duration : 00:03:17.50 = 8709706 samples = 14812.4 CDDA sectors
File Size : 8.30M
Bit Rate : 336k
Sample Encoding: MPEG audio (layer I, II or III)
Comments :
Title=Waiting
Artist=Mr. Elevator
Album=Goodbye, Blue Sky
Tracknumber=1/10
Year=2020
Genre=Psychedelic Rock / Krautrock



Register


Шикаааааарно. Очень воздушная, атмосферная работа, на уровне ( а то и покруче) дебюта 2013 года будет.


Go to the top of the page
  Insert nick Quick quote
+Quote Post
 
Start new topic
Replies (1 - 4)
post Mar 26 2020, 10:18:54
Post #2

Group: Дух
Posts: 1
Releases: 0
On Forums: 2 days 17 hours
Thanks: 0 time(s)
United States


Hi) Don't you know that music helps to improve writing skills, 'cause the brain starts work better, so our writers always listen to music while writing your essays and that's why we have only positive reviews on our works. And guys if you want to buy a good essay, you can easily ask for help of the professional writer from our college research paper writing service, just sen "write my esaay or term paper" and we will be ready to help you)))
Go to the top of the page
  Insert nick Quick quote
+Quote Post
post Mar 26 2020, 10:28:18
Post #3

The Angel Of Death
**************
Group: Металариец
Posts: 5,326
Releases: 48
From: Луганск, 13 регион
On Forums: 14 years 4 months
Thanks: 1682 time(s)
Papua New Guinea


модераторы, а почему "это" не в неформате? (IMG:style_emoticons/default/THIS_IS_SPARTA_v2_0_by_DoooM.gif)


Thanks:
Go to the top of the page
  Insert nick Quick quote
+Quote Post
post Mar 26 2020, 10:40:33
Post #4

Правь статус, ####!111
**************
Group: Металариец
Posts: 45,596
Releases: 703
On Forums: 10 years 9 months
Thanks: 37525 time(s)
Russian Federation


ЦИТАТА(Alexis The Best @ Mar 26 2020, 13:28:18) *
модераторы, а почему "это" не в неформате? (IMG:style_emoticons/default/THIS_IS_SPARTA_v2_0_by_DoooM.gif)


Не гони коней, все будет шеф.

На данный момент - абсолютно лучший релиз года в неформате.
Go to the top of the page
  Insert nick Quick quote
+Quote Post
post Mar 26 2020, 12:54:16
Post #5

Кожаный ублюдок
**************
Group: Металариец
Posts: 3,139
Releases: 6
From: Алчевск (early) Некросибирск (now)
On Forums: 10 years 10 months
Thanks: 1940 time(s)
Russian Federation


ЦИТАТА(vosmidesijatye @ Mar 26 2020, 11:59:30) *
*Genre: 80´s Psychedelic Rock

Fixed (IMG:style_emoticons/default/crazy.gif)
Go to the top of the page
  Insert nick Quick quote
+Quote Post

Reply to this topicStart new topic
1 User(s) are reading this topic (1 Guests and 0 Anonymous Users)
0 Members:

 



- Lo-Fi Version Support form
Copyrights and abuse reports form
Time is now: 29th March 2020 - 03:40:46