Welcome Guest ( Log In | Register )

> Releases Upload / Добавление релизов

Добавить релиз тут / Click here to add release
Рекомендованные обменники / Recommended file shares

 
Reply to this topicStart new topic
> Godhead - Demo [demo] (1992), Death Metal
post Mar 26 2020, 11:34:26
Post #1

Подвал
**************
Group: Металариец
Posts: 14,306
Releases: 8100
From: Far East (Khabarovsk)
On Forums: 11 years 2 months
Thanks: 80765 time(s)
Russian Federation


(IMG:http://metalarea.org/images/audiocovers/2020_Mar/acov_tid335315_thumb.jpg)

*Artist: Godhead
*Album: Demo [demo]
*Year: 1992
*Genre: Death Metal
*Country: United States (IMG:http://metalarea.org/forum/style_images/flags/United%20States.png)
*Format: mp3@VBR230kbps
*Size: 17MB

Tracklist:
1. Consummation Of The Age 05:41
2. Wicked Soul 04:32
******************************
Total playing time: 10:13

Extended info
Band from Toledo, Ohio.
Thanx mr.RunningWild_AT for sharing.


Technical info
(IMG:http://metalarea.org/images/spectrogram/2020_Mar/59e9c280d4ef1f4c044e333b9f74a0f1.png)
Input File: 01-Consummation of the Age.mp3
Channels : 2
Sample Rate : 44100
Precision : 16-bit
Duration : 00:05:41.82 = 15074086 samples = 25636.2 CDDA sectors
File Size : 9.57M
Bit Rate : 224k
Sample Encoding: MPEG audio (layer I, II or III)
Comments :
Title=Consummation of the Age
Artist=Godhead (USA)
Album=Demo 1992
Tracknumber=01
Year=1992
Genre=Death Metal



Register


Go to the top of the page
  Insert nick Quick quote
+Quote Post

Reply to this topicStart new topic
1 User(s) are reading this topic (1 Guests and 0 Anonymous Users)
0 Members:

 



- Lo-Fi Version Support form
Copyrights and abuse reports form
Time is now: 29th March 2020 - 03:52:04