Welcome Guest ( Log In | Register )

> Releases Upload / Добавление релизов

Добавить релиз тут / Click here to add release
Рекомендованные обменники / Recommended file shares

> Deranged - Deeds Of Ruthless Violence (2020), Brutal Death Metal (D)
post Mar 26 2020, 11:45:23
Post #1

Правь статус, ####!111
**************
Group: Металариец
Posts: 21,167
Releases: 14450
From: Г.Харьков
On Forums: 7 years 10 months
Thanks: 257533 time(s)
Unknown


(IMG:http://metalarea.org/images/audiocovers/2020_Mar/acov_tid335316_thumb.jpg)

*Artist: Deranged
*Album: Deeds Of Ruthless Violence
*Year: 2020
*Genre: Brutal Death Metal
*Country: Sweden (IMG:http://metalarea.org/forum/style_images/flags/Sweden.png)
*Format: mp3@CBR320kbps
*Size: 77MB

Tracklist:
1. Necro-Bulimia Interfering Afterlife 03:17
2. Engulfed by Hate I Stab to Kill 04:13
3. Level of Lividity 03:25
4. Carnal Provision for the Rotten Masses 05:13
5. Through Stages of Putrefaction 03:33
6. Carried in Pain, Released by Torture 04:22
7. Quarantine Required for Living Entities 05:06
8. I Send You Half the Kidney I Took 04:03
******************************
Total playing time: 33:12




Extended info
Rikard Wermén Drums (1991-2007, 2009-present)
See also: ex-Enuresis, ex-Killaman, ex-Murder Corporation, ex-El Camino
Thomas Ahlgren Bass (2007-2008), Guitars (2009-present), Vocals (2011)
See also: Pandemonium, ex-Arsonist, ex-End, ex-Monolith
Andreas Johansson Bass (2009-present)
See also: Bergraven, Resonance Cascade, Stilla, ex-Havok
Johan Bergström Vocals (2017-present)
See also: Pandemonium, Resonance Cascade, The Gardnerz, Visceral Bleeding, ex-Splattered Mermaids, ex-Havok, ex-RazorRape (live)


Technical info
(IMG:http://metalarea.org/images/spectrogram/2020_Mar/aaccc8b13d4eb68c36de7c9a2218ee00.png)
Input File: 04 - Carnal Provision for the Rotten Masses.mp3
Channels : 2
Sample Rate : 44100
Precision : 16-bit
Duration : 00:05:13.23 = 13813355 samples = 23492.1 CDDA sectors
File Size : 12.6M
Bit Rate : 322k
Sample Encoding: MPEG audio (layer I, II or III)
Comments :
Title=Carnal Provision for the Rotten Masses
Artist=Deranged
Album=Deeds of Ruthless Violence
Tracknumber=4
Year=2020
Genre=Rock
Discnumber=1



Register


Go to the top of the page
  Insert nick Quick quote
+Quote Post
 
Start new topic
Replies (1 - 5)
post Mar 26 2020, 22:33:42
Post #2

Добрейшей души Мегаманьяк
***********
Group: Металариец
Posts: 1,581
Releases: 0
From: Bashkortostan, Өфө
On Forums: 12 years 1 month
Thanks: 694 time(s)
Russian Federation


Чота не впечатлительно, устану, но переслушаю их дискографию, благо вся на винте есть.

Хех, актуальненько 7. Quarantine Required for Living Entities 05:06


Go to the top of the page
  Insert nick Quick quote
+Quote Post
post Mar 27 2020, 16:14:55
Post #3

Восемь Литров
********
Group: Металариец
Posts: 831
Releases: 0
From: Somewhere along nowhere
On Forums: 1 year 7 months
Thanks: 667 time(s)
United States Minor Outlying Islands


На третьем круге прослушивания поймал себя на мысли, что этот альбом заходит мне гораздо приятнее предшественника.
Не нравится большое количеств средне-медленных треков, которые группа начала клепать с миника Morgue Orgy и по сей день,
часто они как-будто друг на друга похожи.
В то же время открывашка Necro-Bulimia Interfering Afterlife несмотря на принадлежность
к таковым, очень хороша.
Радуют быстрые вещи, такие как Engulfed by Hate I Stab to Kill, Carried in Pain, Released by Torture, , да и Level of Lividity, чувствуется хороший драйв,
а не так, как на прошлом, где особенности записи делали быстрый трек смазанным и как будто захлёбывающимся.
При всей типичности материала Deranged, во время прослушивания выплывают мелкие, но приятны детальки, то солячок,
то выпирающий над общим миксом громоподобный бас, какой-нибудь непривычный уху финт. Да и вокалист этот Johan Bergström,
мне больше нравится его предшественника с прошлого релиза.
Одним словом, есть что послушать с удовольствием, и на том спасибо.


Thanks:
(1) older68,
Go to the top of the page
  Insert nick Quick quote
+Quote Post
post Mar 27 2020, 20:53:39
Post #4

Три Литра
***
Group: Завсегдатай
Posts: 266
Releases: 0
From: Лыткарино
On Forums: 10 months 2 weeks
Thanks: 61 time(s)
Russian Federation


Да в общем-то хорошо всё, ребята опытные, в эксперименты не лезут - долбят по проверенному лекалу. Всё чётко звучит, отдельно можно заметить выраженное басовое звучание.
Go to the top of the page
  Insert nick Quick quote
+Quote Post
post Mar 27 2020, 21:17:48
Post #5

at the top
**************
Group: Металариец
Posts: 4,664
Releases: 0
From: Одесса
On Forums: 12 years 3 weeks
Thanks: 3205 time(s)
Ukraine


Nothing really interesting here.


Thanks:
Go to the top of the page
  Insert nick Quick quote
+Quote Post
post Yesterday, 09:19:19
Post #6

Пять Литров
*****
Group: Металариец
Posts: 488
Releases: 0
From: APATIN, SERBIA, АПАТИН, СЕРБИЯ
On Forums: 12 years 5 months
Thanks: 701 time(s)



Flac

Register


Thanks:
Go to the top of the page
  Insert nick Quick quote
+Quote Post

Reply to this topicStart new topic
1 User(s) are reading this topic (1 Guests and 0 Anonymous Users)
0 Members:

 



- Lo-Fi Version Support form
Copyrights and abuse reports form
Time is now: 29th March 2020 - 02:51:37