Welcome Guest ( Log In | Register )

> Releases Upload / Добавление релизов

Добавить релиз тут / Click here to add release
Рекомендованные обменники / Recommended file shares

 
Reply to this topicStart new topic
> Darker Half - If You Only Knew (2020), Heavy/Power Metal (D6)
post Mar 26 2020, 11:57:42
Post #1

Правь статус, ####!111
**************
Group: Металариец
Posts: 21,205
Releases: 14487
From: Г.Харьков
On Forums: 7 years 10 months
Thanks: 258279 time(s)
Unknown


(IMG:http://metalarea.org/images/audiocovers/2020_Mar/acov_tid335317_thumb.jpg)

*Artist: Darker Half
*Album: If You Only Knew
*Year: 2020
*Genre: Heavy/Power Metal
*Country: Australia (IMG:http://metalarea.org/forum/style_images/flags/Australia.png)
*Format: mp3@CBR320kbps
*Size: 117MB

Tracklist:
01. Glass Coloured Rose
02. Falling
03. Into the Shadows
04. If You Only Knew
05. Sedentary Pain
06. The Bittersweet Caress
07. Thousand Mile Stare
08. Poseidon
09. This Ain't Over
******************************
Total playing time: 51:23



Extended info
Simon Hamilton Bass
See also: Transfix (Aus)
Dom Simpson Drums, Guitars (early)
See also: Transcending Mortality, ex-Flaming Wrekage, ex-Blaze Bayley (live), ex-Paul Di'Anno (live)
Steven "Vo" Simpson Guitars (lead), Vocals
See also: Night Legion
Daniel Packovski Guitars (2018-present)
See also: Pänik


Technical info
(IMG:http://metalarea.org/images/spectrogram/2020_Mar/20bfd0d4dbcbbe9fb79dbf92556d1486.png)
Input File: 4 - If You Only Knew.mp3
Channels : 2
Sample Rate : 44100
Precision : 16-bit
Duration : 00:06:08.19 = 16237311 samples = 27614.5 CDDA sectors
File Size : 14.8M
Bit Rate : 321k
Sample Encoding: MPEG audio (layer I, II or III)
Comments :
Title=If You Only Knew
Artist=Darker Half
Album=If You Only Knew
Tracknumber=4
Year=2020
Genre=Rock
Discnumber=1



Register


Go to the top of the page
  Insert nick Quick quote
+Quote Post

Reply to this topicStart new topic
2 User(s) are reading this topic (2 Guests and 0 Anonymous Users)
0 Members:

 



- Lo-Fi Version Support form
Copyrights and abuse reports form
Time is now: 1st April 2020 - 05:01:35