Welcome Guest ( Log In | Register )

 
Reply to this topicStart new topic
> Disaster Area - Eat This You Bastard! [demo] (1988), Thrash/Heavy Metal (D6)
post Mar 26 2020, 12:04:45
Post #1

Подвал
**************
Group: Металариец
Posts: 14,306
Releases: 8100
From: Far East (Khabarovsk)
On Forums: 11 years 2 months
Thanks: 80763 time(s)
Russian Federation


(IMG:http://metalarea.org/images/audiocovers/2020_Mar/acov_tid335318_thumb.jpg)

*Artist: Disaster Area
*Album: Eat This You Bastard! [demo]
*Year: 1988
*Genre: Thrash/Heavy Metal
*Country: United States (IMG:http://metalarea.org/forum/style_images/flags/United%20States.png)
*Format: mp3@CBR128kbps (IMG:http://metalarea.org/images/bit_low.gif)
*Size: 15MB

Tracklist:
1. Eat Your Face 03:29
2. B.F.D. 02:28
3. The Unspeakable Horror 03:32
4. The Final Solution 07:20
******************************
Total playing time: 16:49

Extended info
Band from Rowland Heights, California.
Recorded and mixed at Taj Mahal Studio.


Technical info
(IMG:http://metalarea.org/images/spectrogram/2020_Mar/42e07fb13d01d3b373f9feaa32811191.png)
Input File: 01-Eat Your Face.mp3
Channels : 2
Sample Rate : 44100
Precision : 16-bit
Duration : 00:03:29.43 = 9235643 samples = 15706.9 CDDA sectors
File Size : 3.35M
Bit Rate : 128k
Sample Encoding: MPEG audio (layer I, II or III)
Comments :
Title=Eat Your Face
Artist=Disaster Area (US, CA)
Album=Eat This You Bastard! (Demo)
Tracknumber=01
Year=1988
Genre=Thrash Metal



Register


Go to the top of the page
  Insert nick Quick quote
+Quote Post

Reply to this topicStart new topic
1 User(s) are reading this topic (1 Guests and 0 Anonymous Users)
0 Members:

 



- Lo-Fi Version Support form
Copyrights and abuse reports form
Time is now: 29th March 2020 - 03:09:51