Welcome Guest ( Log In | Register )

> Releases Upload / Добавление релизов

Добавить релиз тут / Click here to add release
Рекомендованные обменники / Recommended file shares

 
Reply to this topicStart new topic
> Kill Ritual - The Opaque And The Divine (2020), Heavy/Thrash Metal (D6)
post Mar 26 2020, 12:29:32
Post #1

Правь статус, ####!111
**************
Group: Металариец
Posts: 21,167
Releases: 14450
From: Г.Харьков
On Forums: 7 years 10 months
Thanks: 257540 time(s)
Unknown


(IMG:http://metalarea.org/images/audiocovers/2020_Mar/acov_tid335320_thumb.jpg)

*Artist: Kill Ritual
*Album: The Opaque And The Divine
*Year: 2020
*Genre: Heavy/Thrash Metal
*Country: United States (IMG:http://metalarea.org/forum/style_images/flags/United%20States.png)
*Format: mp3@CBR320kbps
*Size: 108MB

Tracklist:
1. Rest in Pain
2. Dead God
3. King of Fools
4. World Gone Mad
5. Praise the Dead
6. The Veil of the Betrayer
7. Touch the Dark
8. A Child to Die for Again
******************************
Total playing time: 47:02



Extended info
Steve Rice Guitars (lead) (2010-present)
See also: Imagika, ex-Gotham
Seamus Gleason Drums (2017-present)
See also: Knight of Tears, Imagika (live)
Chris Lotesto Guitars (2017-2018), Bass (2018-present)
Chalice Vocals (2019-present)
See also: Enchanter, ex-Image Beyond, ex-Moltens Lore


Technical info
(IMG:http://metalarea.org/images/spectrogram/2020_Mar/0d54d8475e88984f6f4cd2ca9287bce2.png)
Input File: 4 - World Gone Mad.mp3
Channels : 2
Sample Rate : 44100
Precision : 16-bit
Duration : 00:05:36.06 = 14820246 samples = 25204.5 CDDA sectors
File Size : 13.5M
Bit Rate : 322k
Sample Encoding: MPEG audio (layer I, II or III)
Comments :
Title=World Gone Mad
Artist=Kill Ritual
Album=The Opaque and the Divine
Tracknumber=4
Year=2020
Genre=Alternative / Indie Rock / Metal
Discnumber=1



Register


Go to the top of the page
  Insert nick Quick quote
+Quote Post

Reply to this topicStart new topic
1 User(s) are reading this topic (1 Guests and 0 Anonymous Users)
0 Members:

 



- Lo-Fi Version Support form
Copyrights and abuse reports form
Time is now: 29th March 2020 - 04:43:07