Welcome Guest ( Log In | Register )

> Releases Upload / Добавление релизов

Добавить релиз тут / Click here to add release
Рекомендованные обменники / Recommended file shares

> Nekrovault - Totenzug: Festering Peregrination (2020), Death/Doom/Black Metal
post Mar 26 2020, 12:42:17
Post #1

Правь статус, ####!111
**************
Group: Металариец
Posts: 21,205
Releases: 14487
From: Г.Харьков
On Forums: 7 years 10 months
Thanks: 258293 time(s)
Unknown


(IMG:http://metalarea.org/images/audiocovers/2020_Mar/acov_tid335321_thumb.jpg)

*Artist: Nekrovault
*Album: Totenzug: Festering Peregrination
*Year: 2020
*Genre: Death/Doom/Black Metal
*Country: Germany (IMG:http://metalarea.org/forum/style_images/flags/Germany.png)
*Format: mp3@CBR320kbps
*Size: 99MB

Tracklist:
1. Totenzug - Funereal Hillscapes 06:18
2. Sepulkrator 08:02
3. Psychomanteum - Luminous Flames 07:58
4. Pallid Eyes 05:17
5. Serpentrance 02:05
6. Basilisk Fumes 04:39
7. Eremitorium 09:01
******************************
Total playing time: 43:20



Extended info
P. Bass, Vocals
See also: Khaos, Motörcult, Niht, Nocturnal Weed, Volcanic, Sacroscum (live)
V. Drums
See also: Graven, ex-Chaosreign, ex-Nocti Vagus, ex-Nordwind, ex-Totenreich, ex-Revel in Flesh
S. Guitars
See also: Niht
SS. Guitars (lead)
See also: Khaos, Massive Demolition, Sacroscum, Blackevil (live), Niht (live), ex-Hate Preacher



Technical info
(IMG:http://metalarea.org/images/spectrogram/2020_Mar/d3be5ca0f1ba580d491fade99756606c.png)
Input File: 04. Pallid Eyes.mp3
Channels : 2
Sample Rate : 44100
Precision : 16-bit
Duration : 00:05:17.23 = 13989623 samples = 23791.9 CDDA sectors
File Size : 12.7M
Bit Rate : 321k
Sample Encoding: MPEG audio (layer I, II or III)
Comments :
Title=Pallid Eyes
Artist=Nekrovault
Album=Totenzug: Festering Peregrination
Tracknumber=4
Year=2020
Discnumber=1



Register


Go to the top of the page
  Insert nick Quick quote
+Quote Post
 
Start new topic
Replies (1 - 1)
post Yesterday, 19:18:06
Post #2

Правь статус, ####!111
**************
Group: Металариец
Posts: 2,017
Releases: 0
From: Украина
On Forums: 11 years 2 months
Thanks: 1301 time(s)
Ukraine


А вот это как мне кажется оставлять без внимания ни как нельзя.
Мрак. Судя по первой песне именно такой как и требуется.
Надо вникать.
Мощно и увесисто.
А главное качественно и душевно вваливают.
Слушать категорически надо ибо это интересно и пробирает.
Некрос Кристос, Экскориэйт, Вененум, местами даже финские психопаты - лунатики Свалловед, ну это кому как, это так на вскидку что-бы частично обрисовать первые симптомы, дальше конечно каждый найдёт сам что ему ухо подскажет.
А так круто. Не ожидал. Интересный замес.
Завтра послушаю в более комфортной обстановке и громкости.
Samaritianin (IMG:style_emoticons/default/9.gif) (IMG:style_emoticons/default/9.gif) (IMG:style_emoticons/default/9.gif) за такие штуки.


Thanks:
Go to the top of the page
  Insert nick Quick quote
+Quote Post

Reply to this topicStart new topic
2 User(s) are reading this topic (2 Guests and 0 Anonymous Users)
0 Members:

 



- Lo-Fi Version Support form
Copyrights and abuse reports form
Time is now: 1st April 2020 - 06:42:04