Welcome Guest ( Log In | Register )

> Releases Upload / Добавление релизов

Добавить релиз тут / Click here to add release
Рекомендованные обменники / Recommended file shares

 
Reply to this topicStart new topic
> Velnias - Scion Of Aether (2020), Post-Metal (D5)
post Mar 26 2020, 12:55:14
Post #1

Мегаманьяк
***********
Group: Металариец
Posts: 1,941
Releases: 1535
From: Praha
On Forums: 5 years 11 months
Thanks: 38593 time(s)
Czech Republic


(IMG:http://metalarea.org/images/audiocovers/2020_Mar/acov_tid335322_thumb.jpg)

*Artist: Velnias
*Album: Scion Of Aether
*Year: 2020
*Genre: Post-Metal
*Country: United States (IMG:http://metalarea.org/forum/style_images/flags/United%20States.png)
*Format: mp3@CBR320kbps
*Size: 119MB

Tracklist:
1. Fissures within the Construct 02:44
2. Pariah of the Infinite 11:04
3. Aurora Rune 09:28
4. Confluence of Entropic Umbra 01:41
5. Supernal Emergent 09:36
6. Oblivion Horizon - Null Terminus 15:12
******************************
Total playing time: 49:45



Extended info
Eisenwald


Technical info
(IMG:http://metalarea.org/images/spectrogram/2020_Mar/38e105062ad219ebcb4efbbf164c1e17.png)
Input File: 02. Pariah of the Infinite.mp3
Channels : 2
Sample Rate : 44100
Precision : 16-bit
Duration : 00:11:03.97 = 29280989 samples = 49797.6 CDDA sectors
File Size : 26.7M
Bit Rate : 322k
Sample Encoding: MPEG audio (layer I, II or III)
Comments :
Title=Pariah of the Infinite
Artist=Velnias
Album=Scion of Aether
Tracknumber=02/06
Year=2020
Genre=Post-Metal
Discnumber=01/01



Register


Go to the top of the page
  Insert nick Quick quote
+Quote Post

Reply to this topicStart new topic
2 User(s) are reading this topic (2 Guests and 0 Anonymous Users)
0 Members:

 



- Lo-Fi Version Support form
Copyrights and abuse reports form
Time is now: 1st April 2020 - 05:59:28