Welcome Guest ( Log In | Register )

> Releases Upload / Добавление релизов

Добавить релиз тут / Click here to add release
Рекомендованные обменники / Recommended file shares

> Solothus - Realm Of Ash And Blood (2020), Old School Death/Doom Metal
post Mar 26 2020, 12:55:25
Post #1

Правь статус, ####!111
**************
Group: Металариец
Posts: 21,205
Releases: 14487
From: Г.Харьков
On Forums: 7 years 10 months
Thanks: 258278 time(s)
Unknown


(IMG:http://metalarea.org/images/audiocovers/2020_Mar/acov_tid335323_thumb.jpg)

*Artist: Solothus
*Album: Realm Of Ash And Blood
*Year: 2020
*Genre: Old School Death/Doom Metal
*Country: Finland (IMG:http://metalarea.org/forum/style_images/flags/Finland.png)
*Format: mp3@CBR320kbps
*Size: 99MB

Tracklist:
1. Father of Sickness 05:39
2. The Watcher 04:58
3. The Gallows' Promise 08:57
4. Last Breath 02:17
5. Below Black Waters 05:43
6. Chasm of Shattered Blood 05:06
7. A Rain of Ash 10:03
******************************
Total playing time: 42:43

Preview 1


Extended info
Veli-Matti Karjalainen Guitars
Kari Kankaanpää Vocals
Juha Karjalainen Drums
Tami Luukkonen Bass
Sami Iivonen Guitars



Technical info
(IMG:http://metalarea.org/images/spectrogram/2020_Mar/e176e9e7a90aaa3902205e66c3461158.png)
Input File: 03. The Gallows' Promise.mp3
Channels : 2
Sample Rate : 44100
Precision : 16-bit
Duration : 00:08:57.11 = 23686551 samples = 40283.2 CDDA sectors
File Size : 21.6M
Bit Rate : 321k
Sample Encoding: MPEG audio (layer I, II or III)
Comments :
Title=The Gallows' Promise
Artist=Solothus
Album=Realm of Ash and Blood
Tracknumber=3
Year=2020
Discnumber=1



Register


Go to the top of the page
  Insert nick Quick quote
+Quote Post
 
Start new topic
Replies (1 - 3)
post Mar 26 2020, 13:05:19
Post #2

Правь статус, ####!111
**************
Group: Металариец
Posts: 2,017
Releases: 0
From: Украина
On Forums: 11 years 2 months
Thanks: 1301 time(s)
Ukraine


Помню первый альбом этих ребят слушал как раз когда он вышел, а вот второй полноформат я вроде-бы прошляпил, а тут уже и третий, надо восполнять пробел.
Go to the top of the page
  Insert nick Quick quote
+Quote Post
post Mar 26 2020, 16:49:52
Post #3

Правь статус, ####!111
**************
Group: Металариец
Posts: 45,707
Releases: 704
On Forums: 10 years 9 months
Thanks: 37634 time(s)
Russian Federation


Люблю подобные арты, красочно и сочно, отражая содержимое рвутся цепи и устремляется дорога в кровавое никуда...


Thanks:
Go to the top of the page
  Insert nick Quick quote
+Quote Post
post Mar 27 2020, 10:31:04
Post #4

Пять Литров
*****
Group: Металариец
Posts: 499
Releases: 0
From: APATIN, SERBIA, АПАТИН, СЕРБИЯ
On Forums: 12 years 5 months
Thanks: 708 time(s)



Flac

Register


Thanks:
(1) Evilded,
Go to the top of the page
  Insert nick Quick quote
+Quote Post

Reply to this topicStart new topic
2 User(s) are reading this topic (2 Guests and 0 Anonymous Users)
0 Members:

 



- Lo-Fi Version Support form
Copyrights and abuse reports form
Time is now: 1st April 2020 - 04:55:08