Welcome Guest ( Log In | Register )

> Releases Upload / Добавление релизов

Добавить релиз тут / Click here to add release
Рекомендованные обменники / Recommended file shares

 
Reply to this topicStart new topic
> Pettypew - Back Where We Belong! [ep] (2002), Heavy Metal
post Mar 26 2020, 13:01:57
Post #1

Подвал
**************
Group: Металариец
Posts: 14,330
Releases: 8109
From: Far East (Khabarovsk)
On Forums: 11 years 2 months
Thanks: 81395 time(s)
Russian Federation


(IMG:http://metalarea.org/images/audiocovers/2020_Mar/acov_tid335324_thumb.png)

*Artist: Pettypew
*Album: Back Where We Belong! [ep]
*Year: 2002
*Genre: Heavy Metal
*Country: Germany (IMG:http://metalarea.org/forum/style_images/flags/Germany.png)
*Format: mp3@CBR320kbps
*Size: 59MB

Tracklist:
1. Blue Sky 05:44
2. Castle 07:29
3. H.I.V. 08:08
4. Goodbye 06:44
5. The Moment 04:32
6. Secret Track 04:00
******************************
Total playing time: 36:37



Technical info
(IMG:http://metalarea.org/images/spectrogram/2020_Mar/431f2ceadf626a69d15c3b774e48bf8d.png)
Input File: 01-Blue Sky.mp3
Channels : 2
Sample Rate : 44100
Precision : 16-bit
Duration : 00:05:44.79 = 15205063 samples = 25859 CDDA sectors
File Size : 13.8M
Bit Rate : 320k
Sample Encoding: MPEG audio (layer I, II or III)
Comments :
Title=Blue Sky
Artist=Pettypew
Album=Back Where We Belong! (EP)
Tracknumber=01
Year=2002
Genre=Heavy Metal



Register


Go to the top of the page
  Insert nick Quick quote
+Quote Post

Reply to this topicStart new topic
1 User(s) are reading this topic (1 Guests and 0 Anonymous Users)
0 Members:

 



- Lo-Fi Version Support form
Copyrights and abuse reports form
Time is now: 1st April 2020 - 05:05:39