Welcome Guest ( Log In | Register )

> Releases Upload / Добавление релизов

Добавить релиз тут / Click here to add release
Рекомендованные обменники / Recommended file shares

 
Reply to this topicStart new topic
> Macbeth - Gedankenwächter (2020), Heavy/Thrash Metal (D)
post Mar 26 2020, 13:22:20
Post #1

Правь статус, ####!111
**************
Group: Металариец
Posts: 21,205
Releases: 14487
From: Г.Харьков
On Forums: 7 years 10 months
Thanks: 258286 time(s)
Unknown


(IMG:http://metalarea.org/images/audiocovers/2020_Mar/acov_tid335326_thumb.jpg)

*Artist: Macbeth
*Album: Gedankenwächter
*Year: 2020
*Genre: Heavy/Thrash Metal
*Country: Germany (IMG:http://metalarea.org/forum/style_images/flags/Germany.png)
*Format: mp3@CBR320kbps
*Size: 124MB

Tracklist:
01. Friedenstaube
02. Krieger
03. In seinem Namen
04. Wolfkinder
05. Daskalogiannis
06. Neue Welt
07. Brandstifter
08. Hexenhammer
09. Gedankenwächter
10. Demmin
******************************
Total playing time: 54:23



Extended info
Hanjo Papst Bass (1985-present)
See also: ex-Caiman
Ralf "Zeidler" Klein Guitars (1985-present)
See also: ex-Caiman
Oliver "Olli" Hippauf Vocals (2002-2010, 2011-present)
See also: ex-Moshquito, ex-Radiation Dust
Alexander Kopp Guitars (2008-present)
See also: Chains of God, ex-Chainstrap
Steffen Adolf Drums (2014-present)


Technical info
(IMG:http://metalarea.org/images/spectrogram/2020_Mar/af3226a5686d5802b0ea5de919a083b3.png)
Input File: 4 - Wolfskinder.mp3
Channels : 2
Sample Rate : 44100
Precision : 16-bit
Duration : 00:06:22.27 = 16858283 samples = 28670.5 CDDA sectors
File Size : 15.3M
Bit Rate : 321k
Sample Encoding: MPEG audio (layer I, II or III)
Comments :
Title=Wolfskinder
Artist=Macbeth
Album=Gedankenwächter
Tracknumber=4
Year=2020
Genre=Rock
Discnumber=1



Register


Go to the top of the page
  Insert nick Quick quote
+Quote Post

Reply to this topicStart new topic
2 User(s) are reading this topic (2 Guests and 0 Anonymous Users)
0 Members:

 



- Lo-Fi Version Support form
Copyrights and abuse reports form
Time is now: 1st April 2020 - 06:12:45