Welcome Guest ( Log In | Register )

> Releases Upload / Добавление релизов

Добавить релиз тут / Click here to add release
Рекомендованные обменники / Recommended file shares

 
Reply to this topicStart new topic
> Wake - Devouring Ruin (2020), Experimental Death/Black Metal (D)
post Mar 26 2020, 13:35:45
Post #1

Правь статус, ####!111
**************
Group: Металариец
Posts: 21,167
Releases: 14450
From: Г.Харьков
On Forums: 7 years 10 months
Thanks: 257535 time(s)
Unknown


(IMG:http://metalarea.org/images/audiocovers/2020_Mar/acov_tid335328_thumb.jpg)

*Artist: Wake
*Album: Devouring Ruin
*Year: 2020
*Genre: Experimental Death/Black Metal
*Country: Canada (IMG:http://metalarea.org/forum/style_images/flags/Canada.png)
*Format: mp3@CBR320kbps
*Size: 105MB

Tracklist:
1. Dissolve and Release 02:07
2. Kana Tevoro (Kania! Kania!) 05:07
3. This Abyssal Plain 04:25
4. Elegy 01:02
5. Mouth of Abolition 06:16
6. Paean 01:16
7. Torchbearer 10:38
8. In the Lair of the Rat Kings 03:23
9. Monuments to Impiety 04:15
10. The Procession (Death March to Eternity) 07:17
******************************
Total playing time: 45:46




Extended info
Josh Bueckert Drums
Rob LaChance Guitars
See also: Mind Mold
Arjun Gill Guitars
See also: Path to Extinction, Premonition, ex-Moosifix
Kyle Ball Vocals (lead)
See also: ex-Kataplexis
Ryan Kennedy Drums (2011-2013), Bass (2017-present)
See also: I Die Screaming, Mind Mold, ex-Urheimat (live)


Technical info
(IMG:http://metalarea.org/images/spectrogram/2020_Mar/e3b4cc897574eefd1a80a8aa6723c8d3.png)
Input File: 03 This Abyssal Plain.mp3
Channels : 2
Sample Rate : 44100
Precision : 16-bit
Duration : 00:04:25.34 = 11701494 samples = 19900.5 CDDA sectors
File Size : 10.6M
Bit Rate : 320k
Sample Encoding: MPEG audio (layer I, II or III)
Comments :
Title=This Abyssal Plain
Artist=Wake
Album=Devouring Ruin
Tracknumber=03/10
Year=2020-20-20
Discnumber=1/1



Register


Go to the top of the page
  Insert nick Quick quote
+Quote Post

Reply to this topicStart new topic
1 User(s) are reading this topic (1 Guests and 0 Anonymous Users)
0 Members:

 



- Lo-Fi Version Support form
Copyrights and abuse reports form
Time is now: 29th March 2020 - 03:34:41