Welcome Guest ( Log In | Register )

> Releases Upload / Добавление релизов

Добавить релиз тут / Click here to add release
Рекомендованные обменники / Recommended file shares

> Graceless - Where Vultures Know Your Name (2020), Old School Death Metal
post Mar 26 2020, 13:45:14
Post #1

Правь статус, ####!111
**************
Group: Металариец
Posts: 21,167
Releases: 14450
From: Г.Харьков
On Forums: 7 years 10 months
Thanks: 257540 time(s)
Unknown


(IMG:http://metalarea.org/images/audiocovers/2020_Mar/acov_tid335329_thumb.jpg)

*Artist: Graceless
*Album: Where Vultures Know Your Name
*Year: 2020
*Genre: Old School Death Metal
*Country: Netherlands (IMG:http://metalarea.org/forum/style_images/flags/Netherlands.png)
*Format: mp3@CBR320kbps
*Size: 107MB

Tracklist:
1. Lugdunum Batavorum 05:16
2. Retaliation of the Wicked 05:36
3. Commander of Christ 05:51
4. Nine Days of Mourning 06:53
5. Here Be Dragons 04:54
6. Where Vultures Know Your Name 06:00
7. Warpeth 05:28
8. Embrace the Rain 05:42
******************************
Total playing time: 45:40




Extended info
Jasper Aptroot Bass
Marc Verhaar Drums
Björn Brusse Guitars
Remco Kreft Vocals, Guitars




Technical info
(IMG:http://metalarea.org/images/spectrogram/2020_Mar/32be81c9717c658c459d2b864dc238b5.png)
Input File: 04. Nine Days of Mourning.mp3
Channels : 2
Sample Rate : 44100
Precision : 16-bit
Duration : 00:06:51.06 = 18127834 samples = 30829.6 CDDA sectors
File Size : 16.7M
Bit Rate : 326k
Sample Encoding: MPEG audio (layer I, II or III)
Comments :
Title=Nine Days of Mourning
Artist=Graceless
Album=Where Vultures Know Your Name
Tracknumber=4
Year=2020
Genre=Death Metal
Discnumber=1



Register


Go to the top of the page
  Insert nick Quick quote
+Quote Post
 
Start new topic
Replies (1 - 6)
post Mar 26 2020, 20:26:42
Post #2

Добрейшей души Мегаманьяк
***********
Group: Металариец
Posts: 1,581
Releases: 0
From: Bashkortostan, Өфө
On Forums: 12 years 1 month
Thanks: 694 time(s)
Russian Federation


Нуничотак, медленноватенько правда, но пойдёт. Надыть послушать предыдущее их творение. Когда они лабали в NAILGUN MASSACRE было тоже неплохо.


Thanks:
Go to the top of the page
  Insert nick Quick quote
+Quote Post
post Mar 26 2020, 23:29:24
Post #3

Правь статус, ####!111
**************
Group: Металариец
Posts: 21,167
Releases: 14450
From: Г.Харьков
On Forums: 7 years 10 months
Thanks: 257540 time(s)
Unknown


FLAC (Tracks) 334 mb
Register


Go to the top of the page
  Insert nick Quick quote
+Quote Post
post Mar 26 2020, 23:59:39
Post #4

Это просто место… где все подошло к концу.
**************
Group: Металариец
Posts: 5,772
Releases: 0
From: Страны Мамонтов
On Forums: 13 years 1 month
Thanks: 2134 time(s)
Antarctica


Шикарне


Go to the top of the page
  Insert nick Quick quote
+Quote Post
post Mar 27 2020, 12:12:15
Post #5

Литр
*
Group: Подсевший
Posts: 89
Releases: 0
On Forums: 2 years 3 months
Thanks: 21 time(s)
Unknown


Not bad at all, thanks for this!


Go to the top of the page
  Insert nick Quick quote
+Quote Post
post Yesterday, 18:33:18
Post #6

MDM-Thrash Metal
**************
Group: Металариец
Posts: 9,322
Releases: 783
From: Одесса
On Forums: 12 years 7 months
Thanks: 21206 time(s)
Ukraine


Очень добротно, среднетемповый мелодичный дез метал с олд скульным привкусом!
Go to the top of the page
  Insert nick Quick quote
+Quote Post
post Today, 03:20:41
Post #7

кручу наждак
**************
Group: Металариец
Posts: 4,301
Releases: 102
From: Самара
On Forums: 9 years 10 months
Thanks: 3408 time(s)
Russian Federation


Давно такой бульдозер не попадался.
Это как бы не топ года.
Go to the top of the page
  Insert nick Quick quote
+Quote Post

Reply to this topicStart new topic
1 User(s) are reading this topic (1 Guests and 0 Anonymous Users)
0 Members:

 



- Lo-Fi Version Support form
Copyrights and abuse reports form
Time is now: 29th March 2020 - 04:38:39