Welcome Guest ( Log In | Register )

> Nerve Saw - Peril (2020), Old School Death Metal
post Mar 26 2020, 14:03:57
Post #1

Правь статус, ####!111
**************
Group: Металариец
Posts: 22,330
Releases: 15460
From: Г.Харьков
On Forums: 8 years 2 months
Thanks: 283039 time(s)
Unknown


(IMG:http://metalarea.org/images/audiocovers/2020_Mar/acov_tid335330_thumb.jpg)

*Artist: Nerve Saw
*Album: Peril
*Year: 2020
*Genre: Old School Death Metal
*Country: Finland (IMG:http://metalarea.org/forum/style_images/flags/Finland.png)
*Format: mp3@CBR320kbps
*Size: 70MB

Tracklist:
1. A Fool 01:58
2. Life Goes On... Not 03:10
3. No Lead 01:27
4. The Red Line 02:22
5. Ghosts in Dialogue 03:05
6. Empty Heart 05:20
7. Nails 02:50
8. Last Verse for the Buried 02:05
9. P.I.A.T. 02:02
10. The Eye of the Golem 02:34
11. Wolves of the 80's 03:02
******************************
Total playing time: 29:55




Extended info
Michael Dorrian Drums
See also: Anatomy of I, ex-Doomspeak, ex-Mutilation Process, ex-Sinister (live)
Markus Makkonen Everything
See also: Farewell, Infektor, Sadistik Forest, Se, josta ei puhuta (live), ex-Mutilation Process, Entrail Tension Experiment, ex-Hooded Menace
Heikki Matero Guitars
See also: Farewell, Se, josta ei puhuta



Technical info
(IMG:http://metalarea.org/images/spectrogram/2020_Mar/d5604032bfe2f7a5103b4124ef3c640d.png)
Input File: 06. Empty Heart.mp3
Channels : 2
Sample Rate : 44100
Precision : 16-bit
Duration : 00:05:20.60 = 14138240 samples = 24044.6 CDDA sectors
File Size : 12.9M
Bit Rate : 323k
Sample Encoding: MPEG audio (layer I, II or III)
Comments :
Title=Empty Heart
Artist=Nerve Saw
Album=Peril
Tracknumber=6
Year=2020
Discnumber=1



Register


Go to the top of the page
  Insert nick Quick quote
+Quote Post
 
Start new topic
Replies (1 - 5)
post Mar 26 2020, 16:38:06
Post #2

Маньяк
**********
Group: Металариец
Posts: 1,034
Releases: 4
From: Харьков
On Forums: 11 years 10 months
Thanks: 368 time(s)
Ukraine


по задумке аффтора это Панк/Олццкул Дед
Go to the top of the page
  Insert nick Quick quote
+Quote Post
post Apr 7 2020, 06:58:59
Post #3

Мегаманьяк
***********
Group: Металариец
Posts: 1,643
Releases: 0
From: Санкт-Петербург
On Forums: 10 years 10 months
Thanks: 701 time(s)
Russian Federation


Редкостная шляпа...
Полнейший примитив...
Go to the top of the page
  Insert nick Quick quote
+Quote Post
post Apr 21 2020, 10:03:36
Post #4

кручу наждак
**************
Group: Металариец
Posts: 4,485
Releases: 102
From: Самара
On Forums: 10 years 1 month
Thanks: 3592 time(s)
Russian Federation


То ли панки, решившие сбацать дэт-метал, то ли наоборот. В любом случае получилась хрень.
Go to the top of the page
  Insert nick Quick quote
+Quote Post
post May 26 2020, 17:53:37
Post #5

Group: Дух
Posts: 3
Releases: 0
On Forums: 1 month 2 weeks
Thanks: 0 time(s)
Russian Federation


judaz,
А меня прикололи, очень круто! На стыке жанров всегда интересная музня. А тут скриминг, шведятина и панк, хороший замес.
Go to the top of the page
  Insert nick Quick quote
+Quote Post
post May 26 2020, 18:16:27
Post #6

Три Литра
***
Group: Завсегдатай
Posts: 247
Releases: 0
From: Vilnius
On Forums: 13 years 4 months
Thanks: 62 time(s)
Lithuania


Вроде веселые и задорные ),-разок точно можно послушать
Go to the top of the page
  Insert nick Quick quote
+Quote Post

Reply to this topicStart new topic
1 User(s) are reading this topic (1 Guests and 0 Anonymous Users)
0 Members:

 



- Lo-Fi Version Support form
Copyrights and abuse reports form
Time is now: 11th July 2020 - 20:40:10