Welcome Guest ( Log In | Register )

> Releases Upload / Добавление релизов

Добавить релиз тут / Click here to add release
Рекомендованные обменники / Recommended file shares

> Nerve Saw - Peril (2020), Old School Death Metal
post Mar 26 2020, 14:03:57
Post #1

Правь статус, ####!111
**************
Group: Металариец
Posts: 21,205
Releases: 14487
From: Г.Харьков
On Forums: 7 years 10 months
Thanks: 258285 time(s)
Unknown


(IMG:http://metalarea.org/images/audiocovers/2020_Mar/acov_tid335330_thumb.jpg)

*Artist: Nerve Saw
*Album: Peril
*Year: 2020
*Genre: Old School Death Metal
*Country: Finland (IMG:http://metalarea.org/forum/style_images/flags/Finland.png)
*Format: mp3@CBR320kbps
*Size: 70MB

Tracklist:
1. A Fool 01:58
2. Life Goes On... Not 03:10
3. No Lead 01:27
4. The Red Line 02:22
5. Ghosts in Dialogue 03:05
6. Empty Heart 05:20
7. Nails 02:50
8. Last Verse for the Buried 02:05
9. P.I.A.T. 02:02
10. The Eye of the Golem 02:34
11. Wolves of the 80's 03:02
******************************
Total playing time: 29:55




Extended info
Michael Dorrian Drums
See also: Anatomy of I, ex-Doomspeak, ex-Mutilation Process, ex-Sinister (live)
Markus Makkonen Everything
See also: Farewell, Infektor, Sadistik Forest, Se, josta ei puhuta (live), ex-Mutilation Process, Entrail Tension Experiment, ex-Hooded Menace
Heikki Matero Guitars
See also: Farewell, Se, josta ei puhuta



Technical info
(IMG:http://metalarea.org/images/spectrogram/2020_Mar/d5604032bfe2f7a5103b4124ef3c640d.png)
Input File: 06. Empty Heart.mp3
Channels : 2
Sample Rate : 44100
Precision : 16-bit
Duration : 00:05:20.60 = 14138240 samples = 24044.6 CDDA sectors
File Size : 12.9M
Bit Rate : 323k
Sample Encoding: MPEG audio (layer I, II or III)
Comments :
Title=Empty Heart
Artist=Nerve Saw
Album=Peril
Tracknumber=6
Year=2020
Discnumber=1



Register


Go to the top of the page
  Insert nick Quick quote
+Quote Post
 
Start new topic
Replies (1 - 1)
post Mar 26 2020, 16:38:06
Post #2

Маньяк
**********
Group: Металариец
Posts: 1,010
Releases: 4
From: Харьков
On Forums: 11 years 7 months
Thanks: 357 time(s)
Ukraine


по задумке аффтора это Панк/Олццкул Дед
Go to the top of the page
  Insert nick Quick quote
+Quote Post

Reply to this topicStart new topic
2 User(s) are reading this topic (2 Guests and 0 Anonymous Users)
0 Members:

 



- Lo-Fi Version Support form
Copyrights and abuse reports form
Time is now: 1st April 2020 - 06:06:11