Welcome Guest ( Log In | Register )

> Witchmoon - Imprecation Of Unbeing (2020), Raw Black Metal (D)
post Mar 29 2020, 07:51:23
Post #1

Правь статус, ####!111
**************
Group: Металариец
Posts: 2,006
Releases: 1586
From: Praha
On Forums: 6 years 1 month
Thanks: 40385 time(s)
Czech Republic


(IMG:http://metalarea.org/images/audiocovers/2020_Mar/acov_tid335474_thumb.jpg)

*Artist: Witchmoon
*Album: Imprecation Of Unbeing
*Year: 2020
*Genre: Raw Black Metal
*Country: United States (IMG:http://metalarea.org/forum/style_images/flags/United%20States.png)
*Format: mp3@CBR320kbps
*Size: 64MB

Tracklist:
1. Painful Visions Return
2. Cursed Grave
3. Secret Spell
4. Unbeing
5. Monolith Obscured By Night Fog
6. Seclusion
******************************
Total playing time: 26:55

Extended info
Final Agony Records


Technical info
(IMG:http://metalarea.org/images/spectrogram/2020_Mar/3c27210a1d6d7257c1b5aa5c7bc53927.png)
Input File: 05. Monolith Obscured By Night Fog.mp3
Channels : 2
Sample Rate : 44100
Precision : 16-bit
Duration : 00:07:00.90 = 18561470 samples = 31567.1 CDDA sectors
File Size : 17.0M
Bit Rate : 324k
Sample Encoding: MPEG audio (layer I, II or III)
Comments :
Title=Monolith Obscured By Night Fog
Artist=Witchmoon
Album=Imprecation Of Unbeing
Tracknumber=05/06
Year=2020
Genre=Black Metal



Register


Go to the top of the page
  Insert nick Quick quote
+Quote Post
 
Start new topic
Replies (1 - 7)
post Mar 29 2020, 11:18:32
Post #2

While Waiting the Worms
**********
Group: Металариец
Posts: 1,014
Releases: 0
On Forums: 6 years 5 months
Thanks: 1408 time(s)
Unknown




Thanks:
Go to the top of the page
  Insert nick Quick quote
+Quote Post
post Mar 29 2020, 11:22:53
Post #3

Правь статус, ####!111
**************
Group: Металариец
Posts: 46,493
Releases: 718
On Forums: 11 years 4 days
Thanks: 39035 time(s)
Russian Federation


@320

Register


Register


Go to the top of the page
  Insert nick Quick quote
+Quote Post
post Mar 29 2020, 12:30:55
Post #4

Forever Underground
**************
Group: Металариец
Posts: 7,004
Releases: 0
On Forums: 5 years 1 month
Thanks: 8782 time(s)
Unknown


Yet another mirror link (IMG:style_emoticons/default/true_black.gif)
Register


Go to the top of the page
  Insert nick Quick quote
+Quote Post
post Mar 29 2020, 15:32:38
Post #5

my church is black
*********
Group: Металариец
Posts: 958
Releases: 3
On Forums: 2 years 11 months
Thanks: 607 time(s)
Cape Verde


подвал к подвалу призывает.
Go to the top of the page
  Insert nick Quick quote
+Quote Post
post Mar 29 2020, 16:39:28
Post #6

De Mysteriis Dom Sathanas
**************
Group: Металариец
Posts: 3,958
Releases: 63
From: Doom
On Forums: 11 years 10 months
Thanks: 3356 time(s)
Russian Federation


Не - я уже такое не воспринимаю
Go to the top of the page
  Insert nick Quick quote
+Quote Post
post Mar 30 2020, 12:56:38
Post #7

Три Литра
***
Group: Завсегдатай
Posts: 297
Releases: 0
On Forums: 13 years 1 month
Thanks: 98 time(s)
Russian Federation


Давно не слышал такого raw. Начал слушать 2017-й у него. Тоже отлично.
Go to the top of the page
  Insert nick Quick quote
+Quote Post
post Mar 30 2020, 19:32:47
Post #8

Два Литра
**
Group: Завсегдатай
Posts: 184
Releases: 0
On Forums: 3 months 2 weeks
Thanks: 114 time(s)
Unknown


Я бы обозначил это демо как Ultra Raw Black Metal
Для самых фанатов
Go to the top of the page
  Insert nick Quick quote
+Quote Post

Reply to this topicStart new topic
1 User(s) are reading this topic (1 Guests and 0 Anonymous Users)
0 Members:

 



- Lo-Fi Version Support form
Copyrights and abuse reports form
Time is now: 6th June 2020 - 05:05:54