Welcome Guest ( Log In | Register )

> Monumentum Damnati - In The Tomb Of A Forgotten King (2020), Melodic Doom/Death/Dark Metal
post Mar 29 2020, 12:44:48
Post #1

Правь статус, ####!111
**************
Group: Металариец
Posts: 21,968
Releases: 15159
From: Г.Харьков
On Forums: 8 years 3 weeks
Thanks: 275176 time(s)
Unknown


(IMG:http://metalarea.org/images/audiocovers/2020_Mar/acov_tid335480_thumb.jpg)

*Artist: Monumentum Damnati
*Album: In The Tomb Of A Forgotten King
*Year: 2020
*Genre: Melodic Doom/Death/Dark Metal
*Country: International (IMG:http://metalarea.org/forum/style_images/flags/International.png)
*Format: mp3@CBR320kbps
*Size: 102MB

Tracklist:
01. The Shining 01:30
02. My Bloody JJ 04:27
03. There's No Place for Life 04:51
04. Anabiosis 05:56
05. In the Tomb of a Forgotten King 05:22
06. Infernal Sun 06:54
07. Falling Snow 04:58
08. Sleepless Anger 03:53
09. Exorcist 03:40
******************************
Total playing time: 41:31





Extended info





Technical info
(IMG:http://metalarea.org/images/spectrogram/2020_Mar/b6ebb2be3e19e42d5d0da63335863cbc.png)
Input File: 4 - Anabiosis.mp3
Channels : 2
Sample Rate : 44100
Precision : 16-bit
Duration : 00:05:56.78 = 15733866 samples = 26758.3 CDDA sectors
File Size : 14.3M
Bit Rate : 321k
Sample Encoding: MPEG audio (layer I, II or III)
Comments :
Title=Anabiosis
Artist=Monumentum Damnati
Album=In the Tomb of a Forgotten King
Tracknumber=4
Year=2020
Genre=Metal
Discnumber=1



Register


Go to the top of the page
  Insert nick Quick quote
+Quote Post
 
Start new topic
Replies (1 - 3)
post Mar 29 2020, 18:42:40
Post #2

Тридцать лет на борту "Тяжёлого" крейсера
**************
Group: Металариец
Posts: 2,282
Releases: 0
From: Питер
On Forums: 12 years 11 months
Thanks: 643 time(s)
Russian Federation


Слабовато, с мелодиями туго, атмосфера так себе
Go to the top of the page
  Insert nick Quick quote
+Quote Post
post Mar 29 2020, 20:28:24
Post #3

Литр
*
Group: Подсевший
Posts: 91
Releases: 0
On Forums: 2 years 4 months
Thanks: 32 time(s)
Belarus


В последние пять-семь лет наметилась тенденция обходиться без мелодий при написании новых альбомов. Прекрасные коллективы гибнут один за другим из-за этого веяния моды. Музыкальный геноцид, или, скорее, суицид.
Go to the top of the page
  Insert nick Quick quote
+Quote Post
post Mar 30 2020, 04:18:14
Post #4

Литр
*
Group: Подсевший
Posts: 75
Releases: 0
On Forums: 1 year 5 months
Thanks: 10 time(s)
Russian Federation


Качество звукозаписи впечатляет. Касательно мелодической компоненты - да, она наличествует. Меж тем мелодии лично меня не увлекают и не поражают воображения. Нужно слушать далее, может быть удастся постичь музыкальный замысел.
Go to the top of the page
  Insert nick Quick quote
+Quote Post

Reply to this topicStart new topic
1 User(s) are reading this topic (1 Guests and 0 Anonymous Users)
0 Members:

 



- Lo-Fi Version Support form
Copyrights and abuse reports form
Time is now: 6th June 2020 - 04:59:18