Welcome Guest ( Log In | Register )

 
Reply to this topicStart new topic
> Ruin & Absconder - Ruin/Absconder [split] (2020), Death Metal | Death Metal (D)(D4)
post Mar 29 2020, 14:07:24
Post #1

Правь статус, ####!616
**************
Group: Металариец
Posts: 5,070
Releases: 3617
From: 55°35’N 38°08’E
On Forums: 11 years 10 months
Thanks: 67095 time(s)
Unknown


(IMG:http://metalarea.org/images/audiocovers/2020_Mar/acov_tid335483_thumb.jpg)

*Artist: Ruin & Absconder
*Album: Ruin/Absconder [split]
*Year: 2020
*Genre: Death Metal | Death Metal
*Country: United States (IMG:http://metalarea.org/forum/style_images/flags/United%20States.png) | United States (IMG:http://metalarea.org/forum/style_images/flags/United%20States.png)
*Format: mp3@CBR320kbps
*Size: 71MB

Tracklist:
Ruin:
1.The Sadist 02:55
2.Deathless Piles of Rot 03:52
3.Hideous End 03:21
4.No One Can Hear the Screams 04:18
Absconder:
5.Gangrenous Extremities 03:26
6.Ear/Ons 02:43
7.My Rotting Head 03:36
8.From Parts Unknown 04:11
******************************
Total playing time: 28:22




Technical info
(IMG:http://metalarea.org/images/spectrogram/2020_Mar/6d6b119e7c5bc77a1b0ff5060203e2b2.png)
Input File: 01 RUIN The Sadist.mp3
Channels : 2
Sample Rate : 44100
Precision : 16-bit
Duration : 00:02:55.84 = 7754676 samples = 13188.2 CDDA sectors
File Size : 7.25M
Bit Rate : 330k
Sample Encoding: MPEG audio (layer I, II or III)
Comments :
Title=RUIN The Sadist
Artist=Ruin / Absconder
Album=Ruin/Absconder Split
Tracknumber=1
Year=2020
Genre=Death Metal



Register


Go to the top of the page
  Insert nick Quick quote
+Quote Post

Reply to this topicStart new topic
1 User(s) are reading this topic (1 Guests and 0 Anonymous Users)
0 Members:

 



- Lo-Fi Version Support form
Copyrights and abuse reports form
Time is now: 6th June 2020 - 06:49:40