Welcome Guest ( Log In | Register )

> Releases Upload / Добавление релизов

Добавить релиз тут / Click here to add release
Рекомендованные обменники / Recommended file shares

 
Reply to this topicStart new topic
> Arcada - Serpent's Void [demo] (2014), Black Metal
post Mar 29 2020, 19:48:40
Post #1

the faceless one
Group Icon
Group: S-moderation team
Posts: 9,324
Releases: 1924
On Forums: 11 years 9 months
Thanks: 114801 time(s)
Russian Federation


(IMG:http://metalarea.org/images/audiocovers/2020_Mar/acov_tid335503_thumb.jpg)

*Artist: Arcada
*Album: Serpent's Void [demo]
*Year: 2014
*Genre: Black Metal
*Country: Peru (IMG:http://metalarea.org/forum/style_images/flags/Peru.png)
*Format: mp3@CBR320kbps
*Size: 40MB

Tracklist:
1. Prophet 03:36
2. Luciferi Reditu 05:11
3. Lux ov Eternity 04:23
4. Serpent's Void 04:29
******************************
Total playing time: 17:39



Extended info
lossy mastered


Technical info
(IMG:http://metalarea.org/images/spectrogram/2020_Mar/d7d37073a2b2550dbaef85beeb539473.png)
Input File: 03 - Lux Ov Eternity.mp3
Channels : 2
Sample Rate : 44100
Precision : 16-bit
Duration : 00:04:22.01 = 11554685 samples = 19650.8 CDDA sectors
File Size : 10.5M
Bit Rate : 320k
Sample Encoding: MPEG audio (layer I, II or III)
Comments :
Title=Lux Ov Eternity
Artist=Arcada
Album=Serpent's Void
Tracknumber=03
Year=2014
Genre=Black Metal



Register


Go to the top of the page
  Insert nick Quick quote
+Quote Post

Reply to this topicStart new topic
1 User(s) are reading this topic (1 Guests and 0 Anonymous Users)
0 Members:

 



- Lo-Fi Version Support form
Copyrights and abuse reports form
Time is now: 29th May 2020 - 05:47:39