Welcome Guest ( Log In | Register )

> Releases Upload / Добавление релизов

Добавить релиз тут / Click here to add release
Рекомендованные обменники / Recommended file shares

 
Reply to this topicStart new topic
> Arcada - Hierophany [demo] (2018), Black Metal
post Mar 29 2020, 19:49:35
Post #1

the faceless one
Group Icon
Group: S-moderation team
Posts: 9,324
Releases: 1924
On Forums: 11 years 9 months
Thanks: 114801 time(s)
Russian Federation


(IMG:http://metalarea.org/images/audiocovers/2020_Mar/acov_tid335505_thumb.jpg)

*Artist: Arcada
*Album: Hierophany [demo]
*Year: 2018
*Genre: Black Metal
*Country: Peru (IMG:http://metalarea.org/forum/style_images/flags/Peru.png)
*Format: mp3@CBR320kbps
*Size: 63MB

Tracklist:
1. Lunar Possession 06:03
2. E.S.L 05:01
3. Ignis 07:08
4. Ascensionem 03:55
5. Ritual Of Evocation 05:20
******************************
Total playing time: 27:27



Technical info
(IMG:http://metalarea.org/images/spectrogram/2020_Mar/27513b19c84e62150c8aefd81c770cd1.png)
Input File: 01 - Lunar Possession.mp3
Channels : 2
Sample Rate : 44100
Precision : 16-bit
Duration : 00:06:02.91 = 16004375 samples = 27218.3 CDDA sectors
File Size : 14.5M
Bit Rate : 320k
Sample Encoding: MPEG audio (layer I, II or III)
Comments :
Title=Lunar Possession
Artist=Arcada
Album=Hierophany
Tracknumber=01
Year=2017
Genre=Black Metal



Register


Go to the top of the page
  Insert nick Quick quote
+Quote Post

Reply to this topicStart new topic
1 User(s) are reading this topic (1 Guests and 0 Anonymous Users)
0 Members:

 



- Lo-Fi Version Support form
Copyrights and abuse reports form
Time is now: 29th May 2020 - 06:07:49