Welcome Guest ( Log In | Register )

> И неформату есть предел.

Рэп/хип-хоп/шансон/поп удаляются. Для них есть свои порталы.

> Die Verbannten Kinder Evas - The Banished Children Of Eve [compilation] (2014), Ambient/Darkwave/Neoclassical (D6)
post Mar 31 2020, 15:29:37
Post #1

𝕻𝕬𝕹𝕬𝕮𝕰𝕬
********
Group: Металариец
Posts: 814
Releases: 470
On Forums: 7 years 11 months
Thanks: 7736 time(s)
Unknown


(IMG:http://metalarea.org/images/audiocovers/2020_Mar/acov_tid335610_thumb.jpg)

*Artist: Die Verbannten Kinder Evas
*Album: The Banished Children Of Eve [compilation]
*Year: 2014
*Genre: Ambient/Darkwave/Neoclassical
*Country: Austria (IMG:http://metalarea.org/forum/style_images/flags/Austria.png)
*Format: mp3@CBR320kbps
*Size: 208MB

Tracklist:
1. Requiem 02:38
2. The Messenger 02:04
3. No Tears Stain This Holy Ground 04:39
4. Einleitung 02:17
5. Quod Olim Arat 05:01
6. Not By Words 01:05
7. Escape 05:29
8. None 02:33
9. Outro 01:02
10. Intro (Live) 03:37
11. The Serpent's Voice (Live) 06:24
12. Requiem (Live) 02:43
13. No Tears On This Holy Ground (Live) 04:31
14. Misery (Live) 05:18
15. Unreal Mystery (Live) 05:58
16. Futile Belief (Live) 06:11
17. Come Heavy Sleep (Live) 06:01
18. Quod Olim Arat (Live) 05:07
19. Darkened Skies (Live) 05:34
20. Waters Of Wide Agony (Live) 06:31
21. Misery (Live Encore) 05:49
******************************
Total playing time: 1:30:32



Extended info
Tracks 1-9 : "Die Verbannten Kinder Evas" Demo (1994).
Tracks 10-21 : "Live in Rotterdam, Holland 12/07/97" (1997).


Technical info
(IMG:http://metalarea.org/images/spectrogram/2020_Mar/c7d4e7504c96eaeb81e840b73ee8e3c9.png)
Input File: 06 - Not By Words.mp3
Channels : 2
Sample Rate : 44100
Precision : 16-bit
Duration : 00:01:08.95 = 3040783 samples = 5171.4 CDDA sectors
File Size : 2.76M
Bit Rate : 320k
Sample Encoding: MPEG audio (layer I, II or III)
Comments :
Title=Not By Words
Artist=Die Verbannten Kinder Evas
Album=The Banished Children Of Eve
Tracknumber=06/21
Year=2014
Genre=Ambient/Atmospheric/Darkwave/Neoclassical



Register


Go to the top of the page
  Insert nick Quick quote
+Quote Post
 
Start new topic
Replies (1 - 3)
post Apr 1 2020, 16:13:02
Post #2

Три Литра
***
Group: Завсегдатай
Posts: 281
Releases: 1
On Forums: 10 years 6 months
Thanks: 101 time(s)
Russian Federation


Это как я понимаю сборник демок и один лайв какой-то?
Для коллекции разве что качну
Go to the top of the page
  Insert nick Quick quote
+Quote Post
post Apr 1 2020, 18:28:05
Post #3

De Mysteriis Dom Sathanas
**************
Group: Металариец
Posts: 3,948
Releases: 63
From: Doom
On Forums: 11 years 10 months
Thanks: 3351 time(s)
Russian Federation


Была эта команда на сплите с Weltenbrand 1996 года - не знаю зачем ее некоторое время держал на кассете, совсем не мое)
Go to the top of the page
  Insert nick Quick quote
+Quote Post
post Apr 1 2020, 20:05:45
Post #4

brutalcesar
**************
Group: Металариец
Posts: 17,921
Releases: 67
From: Рязань
On Forums: 11 years 4 months
Thanks: 9771 time(s)
Russian Federation


Качество демки не на высоте, а уж запись концерта делалась из туалета соседнего дома, это уж точно!
Так что не, слушать удовольствия нет
Go to the top of the page
  Insert nick Quick quote
+Quote Post

Reply to this topicStart new topic
1 User(s) are reading this topic (1 Guests and 0 Anonymous Users)
0 Members:

 



- Lo-Fi Version Support form
Copyrights and abuse reports form
Time is now: 28th May 2020 - 19:19:40