Welcome Guest ( Log In | Register )

> И неформату есть предел.

Рэп/хип-хоп/шансон/поп удаляются. Для них есть свои порталы.

 
Reply to this topicStart new topic
> Viþer - Tröllske [ep] (2019), Folk/Acoustic
post Apr 1 2020, 16:07:16
Post #1

Правь статус, ####!616
**************
Group: Металариец
Posts: 5,030
Releases: 3577
From: 55°35’N 38°08’E
On Forums: 11 years 10 months
Thanks: 66736 time(s)
Unknown


(IMG:http://metalarea.org/images/audiocovers/2020_Apr/acov_tid335665_thumb.jpg)

*Artist: Viþer
*Album: Tröllske [ep]
*Year: 2019
*Genre: Folk/Acoustic
*Country: Sweden (IMG:http://metalarea.org/forum/style_images/flags/Sweden.png)
*Format: mp3@CBR320kbps
*Size: 26MB

Tracklist:
1.Aska 4:10
2.Bergtejnä 0:41
3.Jordältvorna 2:41
4.Ringar I Berget 3:17
******************************
Total playing time: 10:49




Extended info
7" vinyl, Amor Fati Productions
+ scans


Technical info
(IMG:http://metalarea.org/images/spectrogram/2020_Apr/3b3d06164ce5d45709c654794d98ab20.png)
Input File: 02. Bergtejnä.mp3
Channels : 2
Sample Rate : 44100
Precision : 16-bit
Duration : 00:00:41.04 = 1809952 samples = 3078.15 CDDA sectors
File Size : 1.77M
Bit Rate : 345k
Sample Encoding: MPEG audio (layer I, II or III)
Comments :
Title=Bergtejnä
Artist=Viþer
Album=Tröllske
Tracknumber=2
Year=2019
Genre=Acoustic



Register


Go to the top of the page
  Insert nick Quick quote
+Quote Post

Reply to this topicStart new topic
1 User(s) are reading this topic (1 Guests and 0 Anonymous Users)
0 Members:

 



- Lo-Fi Version Support form
Copyrights and abuse reports form
Time is now: 1st June 2020 - 13:13:04