Welcome Guest ( Log In | Register )

> И неформату есть предел.

Рэп/хип-хоп/шансон/поп удаляются. Для них есть свои порталы.

> Tētēma - Necroscape (2020), Experimental Rock
post Apr 4 2020, 12:13:46
Post #1

Правь статус, ####!111
**************
Group: Металариец
Posts: 46,486
Releases: 718
On Forums: 11 years 3 days
Thanks: 39019 time(s)
Russian Federation


(IMG:http://metalarea.org/images/audiocovers/2020_Apr/acov_tid335810_thumb.jpg)

*Artist: Tētēma
*Album: Necroscape
*Year: 2020
*Genre: Experimental Rock
*Country: United States (IMG:http://metalarea.org/forum/style_images/flags/United%20States.png)
*Format: mp3@CBR320kbps
*Size: 92MB

Tracklist:
1. Necroscape 02:53
2. Cutlass Eye 02:19
3. Wait Till Mornin' 03:05
4. Haunted On the Uptake 03:07
5. All Signs Uncensored 03:10
6. Milked Out Million 03:09
7. Soliloquy 02:44
8. Flatliner's Owl 01:16
9. Dead Still 04:14
10. Invertebrate 01:58
11. We'll Talk Inside a Dream 04:22
12. Sun Undone 04:00
13. Funerale Di Un Contadino 04:12
******************************
Total playing time: 40:29

(IMG:http://metalarea.org/images/youtube.png)

Technical info
(IMG:http://metalarea.org/images/spectrogram/2020_Apr/043971fb32e5557b173e5961082962da.png)
Input File: 1. Necroscape.mp3
Channels : 2
Sample Rate : 44100
Precision : 16-bit
Duration : 00:02:53.23 = 7639311 samples = 12992 CDDA sectors
File Size : 6.93M
Bit Rate : 320k
Sample Encoding: MPEG audio (layer I, II or III)
Comments :
Title=Necroscape
Artist=tētēma
Album=necroscape
Tracknumber=01/13
Year=2020-20-20
Discnumber=1/1



Register


Go to the top of the page
  Insert nick Quick quote
+Quote Post
 
Start new topic
Replies (1 - 3)
post Apr 4 2020, 13:49:21
Post #2

Правь статус, ####!111
**************
Group: Металариец
Posts: 46,486
Releases: 718
On Forums: 11 years 3 days
Thanks: 39019 time(s)
Russian Federation


Проект Mike Patton и Anthony Patera.
Go to the top of the page
  Insert nick Quick quote
+Quote Post
post Apr 5 2020, 00:13:27
Post #3

Правь статус, ####!111
**************
Group: Металариец
Posts: 2,136
Releases: 0
From: Харьков
On Forums: 10 years 8 months
Thanks: 983 time(s)
Ukraine


ЦИТАТА(vosmidesijatye @ Apr 4 2020, 15:49:21) *
Проект Mike Patton и Anthony Patera

Да, помню, что Паттон. Как альбом?
Go to the top of the page
  Insert nick Quick quote
+Quote Post
post Apr 5 2020, 21:17:49
Post #4

Правь статус, ####!111
**************
Group: Металариец
Posts: 2,136
Releases: 0
From: Харьков
On Forums: 10 years 8 months
Thanks: 983 time(s)
Ukraine


Скачал, послушал, удалил.
Go to the top of the page
  Insert nick Quick quote
+Quote Post

Reply to this topicStart new topic
1 User(s) are reading this topic (1 Guests and 0 Anonymous Users)
0 Members:

 



- Lo-Fi Version Support form
Copyrights and abuse reports form
Time is now: 4th June 2020 - 20:29:55