Welcome Guest ( Log In | Register )

> Múspellzheimr - Múspellzheimr (2020), Black Metal
post Apr 11 2020, 18:09:02
Post #1

Group Icon
Group: Curation team
Posts: 1,944
Releases: 148
On Forums: 14 years 1 month
Thanks: 15522 time(s)
Russian Federation


(IMG:http://metalarea.org/images/audiocovers/2020_Apr/acov_tid336166_thumb.jpg)

*Artist: Múspellzheimr
*Album: Múspellzheimr
*Year: 2020
*Genre: Black Metal
*Country: Denmark (IMG:https://metalarea.org/forum/style_images/flags/Denmark.png)
*Format: mp3@CBR320kbps
*Size: 99MB

Tracklist:
1. Søkkdalir 08:08
2. Selvæder 10:29
3. Drømme Om Sten, Om Storm, Om Ild 07:08
4. Gabet Og Tordenklang 08:16
5. Draugen 06:00
******************************
Total playing time: 40:01



Extended info
Новьё


Technical info
(IMG:https://metalarea.org/images/spectrogram/2020_Apr/2a119f1e5cb966edcc4ebec37ed2e394.png)
Input File: 01 Søkkdalir.mp3
Channels : 2
Sample Rate : 44100
Precision : 16-bit
Duration : 00:08:08.13 = 21526313 samples = 36609.4 CDDA sectors
File Size : 19.9M
Bit Rate : 326k
Sample Encoding: MPEG audio (layer I, II or III)
Comments :
Title=Søkkdalir
Artist=Múspellzheimr
Album=Múspellzheimr
Tracknumber=1
Year=2020



Register


Go to the top of the page
  Insert nick Quick quote
+Quote Post
 
Start new topic
Replies (1 - 1)
post Oct 17 2020, 19:45:33
Post #2

Самый Тихий Час
**************
Group: Металариец
Posts: 6,131
Releases: 2
On Forums: 10 years 11 months
Thanks: 2823 time(s)
Unknown


Звенящая инфернальным ядом субстанция, напоминаюшая парящий мистицизм отчаяния Xasthur, будто тот окунули в лаву преисподнии...
Go to the top of the page
  Insert nick Quick quote
+Quote Post

Reply to this topicStart new topic
1 User(s) are reading this topic (1 Guests and 0 Anonymous Users)
0 Members:

 



- Lo-Fi Version Support form
Copyrights and abuse reports form
Time is now: 27th October 2020 - 02:00:31