Welcome Guest ( Log In | Register )

> Barishi - Old Smoke (2020), Progressive Metal (D4)
post Apr 23 2020, 12:43:36
Post #1

Правь статус, ####!111
**************
Group: Металариец
Posts: 22,342
Releases: 15480
From: Г.Харьков
On Forums: 8 years 2 months
Thanks: 283378 time(s)
Unknown


(IMG:http://metalarea.org/images/audiocovers/2020_Apr/acov_tid336690_thumb.jpg)

*Artist: Barishi
*Album: Old Smoke
*Year: 2020
*Genre: Progressive Metal
*Country: United States (IMG:http://metalarea.org/forum/style_images/flags/United%20States.png)
*Format: mp3@CBR320kbps
*Size: 115MB

Tracklist:
01. The Silent Circle
02. Blood Aurora
03. The Longhunter
04. Cursus Ablaze
05. Entombed in Gold Forever
06. Old Smoke
******************************
Total playing time: 49:36




Extended info
Jonathan Kelley Bass
Dylan Blake Drums, Percussion
Graham Brooks Guitars, Vocals


Technical info
(IMG:http://metalarea.org/images/spectrogram/2020_Apr/9e1c7dcf5f883aa136f898eedb9bf75a.png)
Input File: 03. The Longhunter.mp3
Channels : 2
Sample Rate : 44100
Precision : 16-bit
Duration : 00:06:21.26 = 16813346 samples = 28594.1 CDDA sectors
File Size : 15.5M
Bit Rate : 326k
Sample Encoding: MPEG audio (layer I, II or III)
Comments :
Title=The Longhunter
Artist=Barishi
Album=Old Smoke
Tracknumber=3
Year=2020
Genre=Progressive metal
Discnumber=1



Register


Go to the top of the page
  Insert nick Quick quote
+Quote Post
 
Start new topic
Replies (1 - 7)
post Apr 23 2020, 19:27:29
Post #2

Тридцать лет на борту "Тяжёлого" крейсера
**************
Group: Металариец
Posts: 2,305
Releases: 0
From: Питер
On Forums: 13 years 1 month
Thanks: 656 time(s)
Russian Federation


не фига себе, прог...скорее закос под Opeth в дезовом ключе
грузят капитально, но переслушивать не тянет


Thanks:
Go to the top of the page
  Insert nick Quick quote
+Quote Post
post Apr 23 2020, 19:58:33
Post #3

21st Century Schizoid Man
**************
Group: Металариец
Posts: 6,540
Releases: 80
From: Moscow
On Forums: 12 years 2 months
Thanks: 5394 time(s)
Russian Federation







Go to the top of the page
  Insert nick Quick quote
+Quote Post
post Apr 23 2020, 20:10:48
Post #4

Правдоруб)
**************
Group: Металариец
Posts: 2,194
Releases: 1
From: Украина, Днепр
On Forums: 7 years 1 month
Thanks: 1775 time(s)
Ukraine


ЦИТАТА(sadmannn @ Apr 23 2020, 19:27:29) *
не фига себе, прог...скорее закос под Opeth в дезовом ключе
грузят капитально, но переслушивать не тянет

Ага, и правда похоже...
Go to the top of the page
  Insert nick Quick quote
+Quote Post
post Apr 23 2020, 20:29:11
Post #5

21st Century Schizoid Man
**************
Group: Металариец
Posts: 6,540
Releases: 80
From: Moscow
On Forums: 12 years 2 months
Thanks: 5394 time(s)
Russian Federation


Действительно напоминает Opeth. Было бы интересно, если бы не монотонность, которая убивает всё впечатление.
Go to the top of the page
  Insert nick Quick quote
+Quote Post
post Apr 23 2020, 20:38:40
Post #6

ретроград
**************
Group: Металариец
Posts: 5,088
Releases: 182
On Forums: 13 years 3 weeks
Thanks: 7720 time(s)
Vatican City


Очередное угарное название)
Go to the top of the page
  Insert nick Quick quote
+Quote Post
post Apr 23 2020, 21:00:18
Post #7

Правдоруб)
**************
Group: Металариец
Posts: 2,194
Releases: 1
From: Украина, Днепр
On Forums: 7 years 1 month
Thanks: 1775 time(s)
Ukraine


ЦИТАТА(Yarri @ Apr 23 2020, 20:29:11) *
Действительно напоминает Opeth. Было бы интересно, если бы не монотонность, которая убивает всё впечатление.

Хм... А я вот рискнул дискографию закинуть, там всего то 3 альбома (вместе с этим) и ЕПшка. Вдруг расслушаю чего. Интересно, все таки.
Go to the top of the page
  Insert nick Quick quote
+Quote Post
post Apr 24 2020, 20:13:21
Post #8

Маньяк
**********
Group: Металариец
Posts: 1,034
Releases: 4
From: Харьков
On Forums: 11 years 10 months
Thanks: 368 time(s)
Ukraine


Opeth мною заслушан до дыр. Как можно было с ЭТИМ сравнить. Ни разу не похоже. Ах, да, вот оно! Они тоже гитары используют)
Go to the top of the page
  Insert nick Quick quote
+Quote Post

Reply to this topicStart new topic
2 User(s) are reading this topic (2 Guests and 0 Anonymous Users)
0 Members:

 



- Lo-Fi Version Support form
Copyrights and abuse reports form
Time is now: 13th July 2020 - 05:29:56